На всех торрентах на трекере установлена скидка на скачивание в размере 100 процентов(а).
 Возможность скачивания торрента НЕ зависит от ограничений при низком ратио, низком аплоаде, требуемом ратио или требуемом аплоаде.


Начать новую тему Ответить на тему
Статистика раздачи
Размер: 8.31 ГБ | Добавлен: 19 июл 2014, 22:59 | Скачали: 74
Сидеров: 6  [0 байт/сек]    Личеров: 1  [0 байт/сек]
Пред. тема | След. тема 

Автор
Сообщение

СообщениеДобавлено: 19 июл 2014, 22:59 

И пришел паук

Along Came a Spider

«The game is far from over.»



Год выпуска: 2001
Страны: США
Жанры: триллер, криминал, детектив
Продолжительность: 01:42:58
Режиссер: Ли Тамахори
Перевод: Профессиональный (Многоголосый закадровый) + авторский + Оригинал

В ролях:
Морган Фриман, Моника Поттер, Майкл Уинкотт, Дилан Бейкер, Мика Бурем, Антон Ельчин, Кимберли Хоторн, Джей О. Сэндерс, Билли Бёрк, Майкл Мориарти, Пенелопа Энн Миллер, Анна Мария Хорсфорд

Описание:
Дочь известного сенатора похищена из закрытой, привилегированной школы. Похититель не выдвигает никаких требований и безжалостно расправляется со всеми, кто пытается встать у него на пути. Единственный человек, которому маньяк позвонил сразу после похищения, был Алекс Кросс.
Опытный сыщик понимает, что убийца решил предпочесть выкупу страшную и непредсказуемую игру, на кону которой - жизнь маленькой девочки. У Кросса и сотрудницы службы безопасности Джизи Флэниген остается очень мало времени, чтобы спасти ребенка...



Качество: BDRip 1080p
Формат: MKV
Видео кодек: H.264 (AVC)
Аудио кодек: AC3
Видео: 1920x816, 9187 Kbps, 23,976 fps
Звук: 48 kHz, AC3, 6c, 448 kbps Профессиональный (Многоголосый закадровый)
Звук: 48 kHz, AC3, 6c, 640 kbps Одноголосный закадровый, Ю.Живов
Звук: 48 kHz, AC3, 6c, 640 kbps Одноголосный закадровый, С.Визгунов
Звук: 48 kHz, AC3, 6c, 640 kbps Оригинал
Субтитры: Русские, Английские



Общее
Формат : Matroska
Версия формата : Version 4 / Version 2
Размер файла : 8,31 Гбайт
Продолжительность : 1 ч. 42 м.
Общий поток : 11,5 Мбит/сек
Дата кодирования : UTC 2013-04-11 09:25:01
Программа кодирования : mkvmerge v6.1.0 ('Old Devil') built on Mar 2 2013 14:32:37
Библиотека кодирования : libebml v1.3.0 + libmatroska v1.4.0

Видео
Идентификатор : 1
Формат : AVC
Формат/Информация : Advanced Video Codec
Профиль формата : High@L4.0
Параметр CABAC формата : Да
Параметр ReFrames формата : 5 кадров
Идентификатор кодека : V_MPEG4/ISO/AVC
Продолжительность : 1 ч. 42 м.
Битрейт : 9187 Кбит/сек
Ширина : 1920 пикселей
Высота : 816 пикселей
Соотношение сторон : 2,35:1
Режим частоты кадров : Постоянный
Частота кадров : 23,976 кадра/сек
Цветовое пространство : YUV
Субдискретизация насыщенности : 4:2:0
Битовая глубина : 8 бит
Тип развёртки : Прогрессивная
Бит/(Пиксели*Кадры) : 0.245
Размер потока : 6,44 Гбайт (78%)
Заголовок : Rip by Dimok
Библиотека кодирования : x264 core 130 r2273 b3065e6
Настройки программы : cabac=1 / ref=5 / deblock=1:-3:-3 / analyse=0x3:0x133 / me=umh / subme=11 / psy=1 / psy_rd=1.00:0.10 / mixed_ref=1 / me_range=32 / chroma_me=1 / trellis=2 / 8x8dct=1 / cqm=0 / deadzone=21,11 / fast_pskip=0 / chroma_qp_offset=-3 / threads=12 / lookahead_threads=1 / sliced_threads=0 / nr=0 / decimate=0 / interlaced=0 / bluray_compat=0 / constrained_intra=0 / bframes=5 / b_pyramid=2 / b_adapt=2 / b_bias=0 / direct=3 / weightb=1 / open_gop=0 / weightp=2 / keyint=240 / keyint_min=23 / scenecut=40 / intra_refresh=0 / rc=2pass / mbtree=0 / bitrate=9187 / ratetol=1.0 / qcomp=0.61 / qpmin=0 / qpmax=69 / qpstep=4 / cplxblur=20.0 / qblur=0.5 / ip_ratio=1.40 / pb_ratio=1.30 / aq=2:0.80
Язык : English
Default : Да
Forced : Нет

Аудио #1
Идентификатор : 2
Формат : AC-3
Формат/Информация : Audio Coding 3
Расширение режима : CM (complete main)
Параметр Endianness формата : Big
Идентификатор кодека : A_AC3
Продолжительность : 1 ч. 42 м.
Вид битрейта : Постоянный
Битрейт : 448 Кбит/сек
Каналы : 6 каналов
Расположение каналов : Front: L C R, Side: L R, LFE
Частота : 48,0 КГц
Битовая глубина : 16 бит
Метод сжатия : С потерями
Размер потока : 330 Мбайт (4%)
Заголовок : Многоголосый закадровый
Язык : Russian
Default : Да
Forced : Нет

Аудио #2
Идентификатор : 3
Формат : AC-3
Формат/Информация : Audio Coding 3
Расширение режима : CM (complete main)
Параметр Endianness формата : Big
Идентификатор кодека : A_AC3
Продолжительность : 1 ч. 42 м.
Вид битрейта : Постоянный
Битрейт : 640 Кбит/сек
Каналы : 6 каналов
Расположение каналов : Front: L C R, Side: L R, LFE
Частота : 48,0 КГц
Битовая глубина : 16 бит
Метод сжатия : С потерями
Размер потока : 471 Мбайт (6%)
Заголовок : Одноголосый закадровый, Ю.Живов
Язык : Russian
Default : Нет
Forced : Нет

Аудио #3
Идентификатор : 4
Формат : AC-3
Формат/Информация : Audio Coding 3
Расширение режима : CM (complete main)
Параметр Endianness формата : Big
Идентификатор кодека : A_AC3
Продолжительность : 1 ч. 42 м.
Вид битрейта : Постоянный
Битрейт : 640 Кбит/сек
Каналы : 6 каналов
Расположение каналов : Front: L C R, Side: L R, LFE
Частота : 48,0 КГц
Битовая глубина : 16 бит
Метод сжатия : С потерями
Размер потока : 471 Мбайт (6%)
Заголовок : Одноголосый закадровый, С.Визгунов
Язык : Russian
Default : Нет
Forced : Нет

Аудио #4
Идентификатор : 5
Формат : AC-3
Формат/Информация : Audio Coding 3
Расширение режима : CM (complete main)
Параметр Endianness формата : Big
Идентификатор кодека : A_AC3
Продолжительность : 1 ч. 42 м.
Вид битрейта : Постоянный
Битрейт : 640 Кбит/сек
Каналы : 6 каналов
Расположение каналов : Front: L C R, Side: L R, LFE
Частота : 48,0 КГц
Битовая глубина : 16 бит
Метод сжатия : С потерями
Размер потока : 471 Мбайт (6%)
Заголовок : Original
Язык : English
Default : Нет
Forced : Нет

Текст #1
Идентификатор : 6
Формат : UTF-8
Идентификатор кодека : S_TEXT/UTF8
Идентификатор кодека/Информация : UTF-8 Plain Text
Заголовок : RUS
Язык : Russian
Default : Да
Forced : Нет

Текст #2
Идентификатор : 7
Формат : UTF-8
Идентификатор кодека : S_TEXT/UTF8
Идентификатор кодека/Информация : UTF-8 Plain Text
Заголовок : ENG
Язык : English
Default : Нет
Forced : Нет

Меню
00:00:00.000 : en:Chapter 01
00:11:53.753 : en:Chapter 02
00:21:11.019 : en:Chapter 03
00:30:15.230 : en:Chapter 04
00:37:49.016 : en:Chapter 05
00:42:09.652 : en:Chapter 06
00:50:02.916 : en:Chapter 07
00:53:53.896 : en:Chapter 08
01:01:13.960 : en:Chapter 09
01:11:41.212 : en:Chapter 10
01:18:07.099 : en:Chapter 11
01:20:32.702 : en:Chapter 12
01:21:24.212 : en:Chapter 13
01:22:54.426 : en:Chapter 14
01:26:28.180 : en:Chapter 15
01:36:02.131 : en:Chapter 16
x264 [info]: frame I:1209 Avg QP:14.62 size:157788
x264 [info]: frame P:34354 Avg QP:17.11 size: 76473
x264 [info]: frame B:112574 Avg QP:18.96 size: 37937
загрузка...
Правила, инструкции, FAQ!!!
Торрент  Добавлен [19 июл 2014, 22:59] Скачать торрент
Скачать торрент
[ Размер 42.08 КБ / Просмотров 6 ]

Статус
Проверен 
 
Размер  8.31 ГБ
Приватный: Нет (DHT включён)
.torrent скачан  74
Как залить торрент? | Как скачать Torrent? | Как смотреть и слушать онлайн?  


     Отправить личное сообщение
   
Страница 1 из 1
Показать сообщения за:  Поле сортировки  
Начать новую тему Ответить на тему

   Похожие торренты   Автор   Ответы   Просмотры   Последнее сообщение 
В этой теме нет новых непрочитанных сообщений. Скачать торрент Проверен И пришёл паук / Along Came A Spider (2001) BDRip 720 | P

в форуме 720p | 1080p, Размер: 4.36 ГБ, Здоровье: 100%

Anonymous

0
11|0

19
119

19 июл 2014, 23:01

Anonymous Перейти к последнему сообщению

В этой теме нет новых непрочитанных сообщений. Скачать торрент Проверен И пришел паук / Along Came a Spider (2001) HDRip | Р

в форуме Триллеры, Размер: 1.45 ГБ, Здоровье: 100%

Anonymous

0
2|0

50
1

19 июл 2014, 22:56

Anonymous Перейти к последнему сообщению

В этой теме нет новых непрочитанных сообщений. Скачать торрент И пришел паук / Along Came a Spider (Ли Тамахори / Lee Tamahori) [2001, Триллер, криминал, детектив, HDRip]

в форуме Триллеры, Размер: 744.75 МБ, Здоровье: 100%

Anonymous

0
3|1

24
0

25 апр 2014, 08:55

Anonymous Перейти к последнему сообщению

В этой теме нет новых непрочитанных сообщений. Скачать торрент Проверен Новый Человек-паук: Высокое напряжение / The Amazing Spider-Man 2: Rise of Electro (2014) BDRip 1080p | iTunes

в форуме 720p | 1080p, Размер: 13.08 ГБ, Здоровье: 100%

Anonymous

0
125|3

88
5962

03 авг 2014, 00:59

Anonymous Перейти к последнему сообщению

В этой теме нет новых непрочитанных сообщений. Скачать торрент Проверен Новый Человек-паук: Высокое напряжение / The Amazing Spider-Man 2 (2014) BDRip 1080p от Ash61 | 3D-Video | halfOU | Лицензия

в форуме HD-Video в 3D, Размер: 13.57 ГБ, Здоровье: 100%

Anonymous

0
87|12

619
2630

14 авг 2014, 06:27

Anonymous Перейти к последнему сообщению



Сейчас этот форум просматривают: нет зарегистрированных пользователей и гости: 1


Вы не можете начинать темы
Вы не можете отвечать на сообщения
Вы не можете редактировать свои сообщения
Вы не можете удалять свои сообщения
Вы не можете добавлять вложения

Перейти:  

!ВНИМАНИЕ!
 Ресурс не предоставляет электронные версии произведений, а занимается лишь коллекционированием и каталогизацией ссылок, присылаемых и публикуемых на форуме нашими читателями. Если вы являетесь правообладателем какого-либо представленного материала и не желаете чтобы ссылка на него находилась в нашем каталоге, свяжитесь с нами и мы незамедлительно удалим её. Файлы для обмена на трекере предоставлены пользователями сайта, и администрация не несёт ответственности за их содержание. Просьба не заливать файлы, защищенные авторскими правами, а также файлы нелегального содержания!