На всех торрентах на трекере установлена скидка на скачивание в размере 100 процентов(а).
 Возможность скачивания торрента НЕ зависит от ограничений при низком ратио, низком аплоаде, требуемом ратио или требуемом аплоаде.


Начать новую тему Ответить на тему
Статистика раздачи
Размер: 7.76 ГБ | Добавлен: 19 июл 2014, 17:17 | Скачали: 98
Сидеров: 6  [0 байт/сек]    Личеров: 1  [0 байт/сек]
Пред. тема | След. тема 

Автор
Сообщение

СообщениеДобавлено: 19 июл 2014, 17:17 

Название: Бешеный Пёс и Глори
Оригинальное название: Mad Dog and Glory
Год выпуска: 1993
Жанр: Мелодрама, комедия, драма, криминал
Выпущено: США, Universal Pictures, Mad Dog Productions
Режиссер: Джон МакНотон
В ролях: Роберт Де Ниро, Ума Турман, Билл Мюррэй, Дэвид Карузо, Майк Старр, Том Таулз, Кэти Бэйкер, Даг Хара, Ивэн Лайонел

Перевод: Профессиональный многоголосый, профессиональный двухголосый, авторский одноголосый

Сюжет фильма

История робкого полицейского - фотографа Уэйна Добби, в шутку прозванного коллегами Бешеным Псом, и гангстера Фрэнка Мило. Уэйн случайно спасает жизнь Фрэнка, и тот присылает ему в качестве подарка девушку Глори…


Файл
Качество: BDRip 1080p (исходник Blu-ray Remux)
Видео: 1920x1040, 10065 Кбит/сек, 23.976 кадр/сек, AVC, x264, High@L4.1, 0.210 Бит/[Пиксели*Кадры], 2pass
Аудио 1: AC3 2.0 48 kHz 192 kbps - Профессиональный многоголосый
Аудио 2: AC3 2.0 48 kHz 192 kbps - Профессиональный двухголосый (ОРТ)
Аудио 3: AC3 2.0 48 kHz 192 kbps - Профессиональный двухголосый (Премьер Видео)
Аудио 4: AC3 2.0 48 kHz 192 kbps - Авторский одноголосый (Андрей Гаврилов)
Аудио 5: AC3 2.0 48 kHz 640 kbps - Original English

Чаптеры: есть
Продолжительность: 01:36:49
Автор рипа: Сообщество:


Format : Matroska
Format version : Version 2
File size : 7.76 GiB
Duration : 1h 36mn
Overall bit rate : 11.5 Mbps
Movie name : Beshenyj Pjos i Glori.(1993).BDRip.1080p.[denis100]
Encoded date : UTC 2014-07-19 13:10:36
Writing application : mkvmerge v5.8.0 ('No Sleep / Pillow') built on Sep 2 2012 15:37:04
Writing library : libebml v1.2.3 + libmatroska v1.3.0

Video
ID : 1
Format : AVC
Format/Info : Advanced Video Codec
Format profile : High@L4.1
Format settings, CABAC : Yes
Format settings, ReFrames : 4 frames
Codec ID : V_MPEG4/ISO/AVC
Duration : 1h 36mn
Bit rate : 10.1 Mbps
Width : 1 920 pixels
Height : 1 040 pixels
Display aspect ratio : 1.85:1
Frame rate mode : Constant
Frame rate : 23.976 fps
Color space : YUV
Chroma subsampling : 4:2:0
Bit depth : 8 bits
Scan type : Progressive
Bits/(Pixel*Frame) : 0.210
Stream size : 6.65 GiB (86%)
Title : Beshenyj Pjos i Glori.(1993).BDRip.1080p.[denis100]
Writing library : x264 core 138 r2358 9e941d1
Encoding settings : cabac=1 / ref=4 / deblock=1:-3:-3 / analyse=0x3:0x133 / me=umh / subme=11 / psy=1 / psy_rd=1.00:0.15 / mixed_ref=1 / me_range=32 / chroma_me=1 / trellis=2 / 8x8dct=1 / cqm=0 / deadzone=21,11 / fast_pskip=0 / chroma_qp_offset=-3 / threads=6 / lookahead_threads=1 / sliced_threads=0 / nr=0 / decimate=1 / interlaced=0 / bluray_compat=0 / constrained_intra=0 / bframes=8 / b_pyramid=2 / b_adapt=2 / b_bias=0 / direct=3 / weightb=1 / open_gop=0 / weightp=2 / keyint=240 / keyint_min=23 / scenecut=40 / intra_refresh=0 / rc_lookahead=40 / rc=2pass / mbtree=1 / bitrate=10065 / ratetol=1.0 / qcomp=0.60 / qpmin=0 / qpmax=69 / qpstep=4 / cplxblur=20.0 / qblur=0.5 / ip_ratio=1.40 / aq=1:0.90
Language : English
Default : Yes
Forced : No

Audio #1
ID : 2
Format : AC-3
Format/Info : Audio Coding 3
Mode extension : CM (complete main)
Format settings, Endianness : Big
Codec ID : A_AC3
Duration : 1h 36mn
Bit rate mode : Constant
Bit rate : 192 Kbps
Channel(s) : 2 channels
Channel positions : Front: L R
Sampling rate : 48.0 KHz
Bit depth : 16 bits
Compression mode : Lossy
Stream size : 133 MiB (2%)
Title : Профессиональный многоголосый
Language : Russian
Default : Yes
Forced : No

Audio #2
ID : 3
Format : AC-3
Format/Info : Audio Coding 3
Mode extension : CM (complete main)
Format settings, Endianness : Big
Codec ID : A_AC3
Duration : 1h 36mn
Bit rate mode : Constant
Bit rate : 192 Kbps
Channel(s) : 2 channels
Channel positions : Front: L R
Sampling rate : 48.0 KHz
Bit depth : 16 bits
Compression mode : Lossy
Stream size : 133 MiB (2%)
Title : Профессиональный двухголосый (ОРТ)
Language : Russian
Default : No
Forced : No

Audio #3
ID : 4
Format : AC-3
Format/Info : Audio Coding 3
Mode extension : CM (complete main)
Format settings, Endianness : Big
Codec ID : A_AC3
Duration : 1h 36mn
Bit rate mode : Constant
Bit rate : 192 Kbps
Channel(s) : 2 channels
Channel positions : Front: L R
Sampling rate : 48.0 KHz
Bit depth : 16 bits
Compression mode : Lossy
Stream size : 133 MiB (2%)
Title : Профессиональный двухголосый (Премьер Видео)
Language : Russian
Default : No
Forced : No

Audio #4
ID : 5
Format : AC-3
Format/Info : Audio Coding 3
Mode extension : CM (complete main)
Format settings, Endianness : Big
Codec ID : A_AC3
Duration : 1h 36mn
Bit rate mode : Constant
Bit rate : 192 Kbps
Channel(s) : 2 channels
Channel positions : Front: L R
Sampling rate : 48.0 KHz
Bit depth : 16 bits
Compression mode : Lossy
Stream size : 133 MiB (2%)
Title : Авторский одноголосый (Андрей Гаврилов)
Language : Russian
Default : No
Forced : No

Audio #5
ID : 6
Format : AC-3
Format/Info : Audio Coding 3
Mode extension : CM (complete main)
Format settings, Endianness : Big
Codec ID : A_AC3
Duration : 1h 36mn
Bit rate mode : Constant
Bit rate : 640 Kbps
Channel(s) : 2 channels
Channel positions : Front: L R
Sampling rate : 48.0 KHz
Bit depth : 16 bits
Compression mode : Lossy
Stream size : 443 MiB (6%)
Title : English
Language : English
Default : No
Forced : No

Menu
00:00:00.000 : en:Chapter 01
00:06:24.299 : en:Chapter 02
00:13:54.916 : en:Chapter 03
00:22:14.041 : en:Chapter 04
00:31:20.044 : en:Chapter 05
00:39:51.806 : en:Chapter 06
00:48:27.654 : en:Chapter 07
00:54:52.163 : en:Chapter 08
01:00:59.447 : en:Chapter 09
01:08:08.167 : en:Chapter 10
01:15:11.590 : en:Chapter 11
01:24:17.010 : en:Chapter 12
01:36:49.386 : en:Chapter 13

загрузка...
Правила, инструкции, FAQ!!!
Торрент  Добавлен [19 июл 2014, 17:17] Скачать торрент
Скачать торрент
[ Размер 39.31 КБ / Просмотров 15 ]

Статус
Проверен 
 
Размер  7.76 ГБ
Приватный: Нет (DHT включён)
.torrent скачан  98
Как залить торрент? | Как скачать Torrent? | Как смотреть и слушать онлайн?  


     Отправить личное сообщение
   
Страница 1 из 1
Показать сообщения за:  Поле сортировки  
Начать новую тему Ответить на тему

   Похожие торренты   Автор   Ответы   Просмотры   Последнее сообщение 
В этой теме нет новых непрочитанных сообщений. Скачать торрент Проверен Адмирал / Michiel de Ruyter (2015) BDRip 1080p от NNNB | A

в форуме 720p | 1080p, Размер: 11.55 ГБ, Здоровье: 100%

Гость

0
205|29

91
423

16 ноя 2015, 00:03

Гость Перейти к последнему сообщению

В этой теме нет новых непрочитанных сообщений. Скачать торрент Проверен Опасная иллюзия / The Necessary Death of Charlie Countryman (2013) BDRip 1080p от NNNB

в форуме 720p | 1080p, Размер: 7.75 ГБ, Здоровье: 100%

Гость

0
201|19

28
918

07 дек 2014, 10:54

Гость Перейти к последнему сообщению

В этой теме нет новых непрочитанных сообщений. Скачать торрент Проверен Scorpions - Moment of Glory (Live with the Berlin Philharmonic Orchestra) [2013, Rock, BDRip 1080p]

в форуме Концерты (HD-Video), Размер: 8.86 ГБ, Здоровье: 100%

Гость

0
25|8

89
6

29 апр 2015, 19:31

Гость Перейти к последнему сообщению

В этой теме нет новых непрочитанных сообщений. Скачать торрент Проверен Бешеный райдэр в 3Д / Rabid Rider 3D (Мэттью О’Каллаган / Matthew O'Callaghan) [2010, Мультфильм, короткометражка, комедия, BDremux, 1080p] BD3D

в форуме 3D Мультфильмы, Размер: 977.63 МБ, Здоровье: 0%

Anonymous

0
0|0

5
0

07 сен 2016, 18:01

Anonymous Перейти к последнему сообщению

В этой теме нет новых непрочитанных сообщений. Скачать торрент Разрушитель / Demolition Man (1993) BDRip 1080p

в форуме 720p | 1080p, Размер: 7.76 ГБ, Здоровье: 100%

Anonymous

0
19|2

40
7

13 янв 2014, 20:05

Anonymous Перейти к последнему сообщению



Сейчас этот форум просматривают: нет зарегистрированных пользователей и гости: 2


Вы не можете начинать темы
Вы не можете отвечать на сообщения
Вы не можете редактировать свои сообщения
Вы не можете удалять свои сообщения
Вы не можете добавлять вложения

Перейти:  

!ВНИМАНИЕ!
 Ресурс не предоставляет электронные версии произведений, а занимается лишь коллекционированием и каталогизацией ссылок, присылаемых и публикуемых на форуме нашими читателями. Если вы являетесь правообладателем какого-либо представленного материала и не желаете чтобы ссылка на него находилась в нашем каталоге, свяжитесь с нами и мы незамедлительно удалим её. Файлы для обмена на трекере предоставлены пользователями сайта, и администрация не несёт ответственности за их содержание. Просьба не заливать файлы, защищенные авторскими правами, а также файлы нелегального содержания!