На всех торрентах на трекере установлена скидка на скачивание в размере 100 процентов(а).
 Возможность скачивания торрента НЕ зависит от ограничений при низком ратио, низком аплоаде, требуемом ратио или требуемом аплоаде.


Начать новую тему Ответить на тему
Статистика раздачи
Размер: 4.38 ГБ | Добавлен: 18 июл 2014, 00:09 | Скачали: 1
Сидеров: 25  [0 байт/сек]    Личеров: 1  [0 байт/сек]
Пред. тема | След. тема 

Автор
Сообщение

СообщениеДобавлено: 18 июл 2014, 00:09 

Катастрофа / Blue Ruin (2013) BDRip

Год выпуска: 2013
Производство: США - Film Science, Neighborhood Watch, Paradise City, The Lab of Madness
Жанр: Триллер
Перевод: Одноголосый закадровый, любительский |ХихиДок|
Субтитры: Вшитые отключаемые
Язык субтитров: Русский, английский

Режиссер: Джереми Солнье
Продюсер: Ричард Пит, Винсент Савино, Аниш Савджани
Актеры: Макон Блэр, Девин Рэтрей, Эми Харгривз, Кевин Колак, Ив Пламб, Дэвид В. Томпсон, Стэйси Рок, Сидне Андерсон, Бонни Джонсон

Описание фильма:
Спокойная жизнь таинственного затворника переворачивается с ног на голову, когда он возвращается туда, где провел детство, желая отомстить. Он ввязывается в жестокую борьбу, чтобы защитить свою семью…



Дата мировой премьеры: 17 мая 2013

Продолжительность: 01:30:24
Качество видео: BDRip 1080p

Видео: MPEG-4 AVC/H.264, 5650 Кбит/сек, 1920x806, 23.976 кадр/с
Аудио #1: Русский: AC3, 5.1, 640 Кбит/с, 48kHz, 16 bit
Аудио #2: Английский: AC3, 5.1, 640 Кбит/с, 48kHz, 16 bit

Сохранены оригинальные чаптеры как на Blu-Ray
Общее
Уникальный идентификатор : 232751666138961033070052136745981088568 (0xAF1A5720AC5B93BE8CD42AD888EA9338)
Полное имя : D:\Video\Blue.Ruin.2013.1080p.BDRip.mkv
Формат : Matroska
Версия формата : Version 2
Размер файла : 4,38 Гбайт
Продолжительность : 1 ч. 30 м.
Общий поток : 6931 Кбит/сек
Дата кодирования : UTC 2014-07-17 09:27:12
Программа кодирования : mkvmerge v6.5.0 ('Isn't she lovely') built on Oct 20 2013 12:50:05
Библиотека кодирования : libebml v1.3.0 + libmatroska v1.4.1

Видео
Идентификатор : 1
Формат : AVC
Формат/Информация : Advanced Video Codec
Профиль формата :
Параметр CABAC формата : Да
Параметр ReFrames формата : 5 кадров
Идентификатор кодека : V_MPEG4/ISO/AVC
Продолжительность : 1 ч. 30 м.
Битрейт : 5650 Кбит/сек
Ширина : 1920 пикселей
Высота : 806 пикселей
Соотношение сторон : 2,40:1
Режим частоты кадров : Постоянный
Частота кадров : 23,976 кадра/сек
Цветовое пространство : YUV
Субдискретизация насыщенности : 4:2:0
Битовая глубина : 8 бит
Тип развёртки : Прогрессивная
Бит/(Пиксели*Кадры) : 0.152
Размер потока : 3,48 Гбайт (80%)
Библиотека кодирования : x264 core 142 r2409+42 04be48a tMod [8-bit@all X86_64]
Настройки программы : cabac=1 / ref=5 / deblock=1:-3:-3 / analyse=0x3:0x133 / me=umh / subme=11 / psy=1 / fade_compensate=0.00 / psy_rd=1.00:0.00 / mixed_ref=1 / me_range=32 / chroma_me=1 / trellis=2 / 8x8dct=1 / cqm=0 / deadzone=21,11 / fast_pskip=0 / chroma_qp_offset=-2 / threads=12 / lookahead_threads=1 / sliced_threads=0 / nr=0 / decimate=0 / interlaced=0 / bluray_compat=0 / constrained_intra=0 / fgo=0 / bframes=9 / b_pyramid=2 / b_adapt=2 / b_bias=0 / direct=3 / weightb=1 / open_gop=0 / weightp=2 / keyint=240 / keyint_min=23 / scenecut=40 / intra_refresh=0 / rc=2pass / mbtree=0 / bitrate=5650 / ratetol=1.0 / qcomp=0.60 / qpmin=0:0:0 / qpmax=69:69:69 / qpstep=4 / cplxblur=20.0 / qblur=0.5 / ip_ratio=1.40 / pb_ratio=1.30 / aq=4:0.90 / aq-sensitivity=10.00 / aq-factor=1.00:1.00:1.00 / aq2=0 / aq3=0
Язык : English
Default : Да
Forced : Нет

Аудио #1
Идентификатор : 2
Формат : AC-3
Формат/Информация : Audio Coding 3
Расширение режима : CM (complete main)
Параметр Endianness формата : Big
Идентификатор кодека : A_AC3
Продолжительность : 1 ч. 30 м.
Вид битрейта : Постоянный
Битрейт : 640 Кбит/сек
Каналы : 6 каналов
Расположение каналов : Front: L C R, Side: L R, LFE
Частота : 48,0 КГц
Битовая глубина : 16 бит
Метод сжатия : С потерями
Размер потока : 414 Мбайт (9%)
Заголовок : ХиХиДок
Язык : Russian
Default : Да
Forced : Да

Аудио #2
Идентификатор : 3
Формат : AC-3
Формат/Информация : Audio Coding 3
Расширение режима : CM (complete main)
Параметр Endianness формата : Big
Идентификатор кодека : A_AC3
Продолжительность : 1 ч. 30 м.
Вид битрейта : Постоянный
Битрейт : 640 Кбит/сек
Каналы : 6 каналов
Расположение каналов : Front: L C R, Side: L R, LFE
Частота : 48,0 КГц
Битовая глубина : 16 бит
Метод сжатия : С потерями
Размер потока : 414 Мбайт (9%)
Язык : English
Default : Нет
Forced : Нет

Текст #1
Идентификатор : 4
Формат : UTF-8
Идентификатор кодека : S_TEXT/UTF8
Идентификатор кодека/Информация : UTF-8 Plain Text
Заголовок : ХиХиДок
Язык : Russian
Default : Нет
Forced : Нет

Текст #2
Идентификатор : 5
Формат : UTF-8
Идентификатор кодека : S_TEXT/UTF8
Идентификатор кодека/Информация : UTF-8 Plain Text
Язык : English
Default : Нет
Forced : Нет

Меню
00:00:00.000 : en:Chapter 01
00:04:17.006 : en:Chapter 02
00:09:38.661 : en:Chapter 03
00:16:02.044 : en:Chapter 04
00:23:38.417 : en:Chapter 05
00:32:14.432 : en:Chapter 06
00:40:52.533 : en:Chapter 07
00:47:29.179 : en:Chapter 08
00:55:07.178 : en:Chapter 09
01:03:16.793 : en:Chapter 10
01:08:04.163 : en:Chapter 11
01:13:18.018 : en:Chapter 12
01:18:36.211 : en:Chapter 13
01:26:04.117 : en:Chapter 14
Фильм о «кровной мести», только без какой-либо этики и морали, как говорится суровый вердикт без суда. Я это к тому, что привычное трактовка этого понятия в контексте религий и обычаев этот фильм миновали, у картины «Катастрофа» просто детально описывается сам весь процесс, нежели предпосылки.

Главный герой такой себе отшельник доедает бургеры за кем-то, моется в чужих домах и ночует в своей машине на берегу. Ясность вносит режиссер, что такое состояние главного героя — дело временное, точно так же подтверждает полицейская однажды утром, мол: «Дорогой, проблем с тобой не было никогда, но вот тебе газетка, полезно знать». Главный герой дождался своего времени пик, когда убийца его родителей должен выйти на свободу.

Сам фильм начинается без какого-либо пролога, действие вступает в силу в самом начале — нож в шее и виске одного из злодеев и это буквально в первых минут десять экранного времени. Дальше идет по сюжету то, что обычно ставят в самом начале — формальное знакомство с главным героем, его сестрой и всей предысторией, передышка, и дальше действие. Под действием я понимают самый настоящий «саспенс» который может только существовать, если кто помнит и хвалит «По волчьим законам», то «Катастрофа» примерно из такой серии только, как по мне, на порядок динамичнее и круче.

Режиссер этой независимой работы над атмосферой работал, наверное, не одну неделю — главный герой так и не вытащил из своей ноги стрелу. Один из злодеев сидит в багажнике и на «мушке», звонит своему сообщнику и просит перезвонить, мол, мало денег на счету. Юмора в фильме нет, хотя во время некоторых сцен действительно может быть смешно, но все вышесказанное, как и многое другое лишь подтверждение скрупулезности режиссера данного фильма, который хотел по-настоящему заставить зрителя поверить в происходящее.

Фильм далеко не идеал и даже в жанре триллера, все-таки концепция «независимости» не дает «Катастрофе» рассчитывать на огромный кассовый успех или публичное признание. Но это тот бескомпромиссный фильм, который на все сто процентов найдет своего зрителя и доставит ему удовольствие от просмотра.

10 из 10
Скриншоты:
загрузка...
Правила, инструкции, FAQ!!!
Торрент  Добавлен [18 июл 2014, 00:09] Скачать торрент
Скачать торрент
[ Размер 22.59 КБ / Просмотров 8 ]

Статус
Проверен 
 
Размер  4.38 ГБ
Приватный: Нет (DHT включён)
.torrent скачан  1
Как залить торрент? | Как скачать Torrent? | Как смотреть и слушать онлайн?  


     Отправить личное сообщение
   
Страница 1 из 1
Показать сообщения за:  Поле сортировки  
Начать новую тему Ответить на тему

   Похожие торренты   Автор   Ответы   Просмотры   Последнее сообщение 
В этой теме нет новых непрочитанных сообщений. Скачать торрент Катастрофа / Blue Ruin (Джереми Солнье / Jeremy Saulnier) [2013, США, Триллер, WEB-DLRip]

в форуме Триллеры, Размер: 1.39 ГБ, Здоровье: 0%

Anonymous

0
0|0

40
0

17 май 2014, 00:04

Anonymous Перейти к последнему сообщению

В этой теме нет новых непрочитанных сообщений. Скачать торрент Проверен (Hard Rock) Electric Ruin - Electric Ruin (Ep), 2013, MP3, 320 kbps

в форуме Classic Rock & Hard Rock, Размер: 41.57 МБ, Здоровье: 0%

Anonymous

0
0|0

0
0

13 ноя 2016, 11:23

Anonymous Перейти к последнему сообщению

В этой теме нет новых непрочитанных сообщений. Скачать торрент Это катастрофа / It's a Disaster (2012) BDRip 720p | P

в форуме 720p | 1080p, Размер: 4.94 ГБ, Здоровье: 100%

Anonymous

0
4|0

42
11

22 мар 2014, 21:14

Anonymous Перейти к последнему сообщению

В этой теме нет новых непрочитанных сообщений. Скачать торрент Проверен Инферно в 3Д / Из преисподней / Out of Inferno 3D (Оксид Пан, Дэнни Пан / Oxide Pang Chun, Danny Pang) [2013, Катастрофа, Драма, BDrip-AVC] VO, Half OverUnder / Вертикальная анаморфная стереопара

в форуме HD-Video в 3D, Размер: 9.87 ГБ, Здоровье: 100%

Anonymous

0
56|19

119
0

10 июл 2014, 16:31

Anonymous Перейти к последнему сообщению

В этой теме нет новых непрочитанных сообщений. Скачать торрент Проверен Бриллиантовый полицейский / Blue Streak (1999) BDRip 1080p

в форуме 720p | 1080p, Размер: 7.75 ГБ, Здоровье: 100%

Anonymous

0
16|1

82
249

17 авг 2014, 15:24

Anonymous Перейти к последнему сообщению



Сейчас этот форум просматривают: нет зарегистрированных пользователей и гости: 2


Вы не можете начинать темы
Вы не можете отвечать на сообщения
Вы не можете редактировать свои сообщения
Вы не можете удалять свои сообщения
Вы не можете добавлять вложения

Перейти:  

!ВНИМАНИЕ!
 Ресурс не предоставляет электронные версии произведений, а занимается лишь коллекционированием и каталогизацией ссылок, присылаемых и публикуемых на форуме нашими читателями. Если вы являетесь правообладателем какого-либо представленного материала и не желаете чтобы ссылка на него находилась в нашем каталоге, свяжитесь с нами и мы незамедлительно удалим её. Файлы для обмена на трекере предоставлены пользователями сайта, и администрация не несёт ответственности за их содержание. Просьба не заливать файлы, защищенные авторскими правами, а также файлы нелегального содержания!