На всех торрентах на трекере установлена скидка на скачивание в размере 100 процентов(а).
 Возможность скачивания торрента НЕ зависит от ограничений при низком ратио, низком аплоаде, требуемом ратио или требуемом аплоаде.


Начать новую тему Ответить на тему
Статистика раздачи
Размер: 2.91 ГБ | Добавлен: 17 июл 2014, 20:30 | Скачали: 114
Сидеров: 12  [0 байт/сек]    Личеров: 4  [0 байт/сек]
Пред. тема | След. тема 

Автор
Сообщение

СообщениеДобавлено: 17 июл 2014, 20:30 

«Кино про любовь...»



Страна: Россия
Производство: Staralis Film Company
Жанр: драма
Год выпуска: 2007
Продолжительность: 01:44:37

Перевод: Не требуется
Оригинальная аудиодорожка: русский
Cубтитры: нет

Режиссер: Ярослав Чеважевский

В ролях:
Павел Деревянко, Дмитрий Дюжев, Марина Голуб, Андрей Ильин, Юрий Колокольников, Ирина Купченко, Александр Половцев, Дина Корзун, Настя Добрынина и др.

Описание:
Лене 38 лет. Жизнь, казалось бы, налажена — Москва, карьера, «престижный» бойфренд… Но Лена сознает, что это — путь в никуда, что при внешнем благополучии она потеряла что-то очень важное и что пришла пора, наконец, пересмотреть свою жизнь. Либо сейчас, либо уже никогда…
Кука живет в Петербурге совершенно одна. Она очень смышленая и очень взрослая. Кука все делает сама — и в магазин ходит, и еду готовит, и за домом следит. Кука смелая. Куке — 6 лет. Однажды Лена и Кука встречаются…




Семпл


Исходник: Blu-ray 1080p
Тип релиза: BDRip 720p
Контейнер: MKV

Видео: 1280x720 (16:9), 23,976 fps, H264 ~ 3530 kbps avg, 0.160 bit/pixel
Аудио: 48 kHz, Dolby Digital AC3 5.1, 448 kbps

Раздача от:
Общее
Полное имя : Kuka.2007.BDRip720p_[New-team]_by_AVP_Studio.mkv
Формат : Matroska
Версия формата : Version 2
Размер файла : 2,91 Гбайт
Продолжительность : 1 ч. 44 м.
Общий поток : 3976 Кбит/сек
Дата кодирования : UTC 2014-07-16 20:48:32
Программа кодирования : mkvmerge v6.1.0 ('Old Devil') built on Mar 4 2013 09:10:42
Библиотека кодирования : libebml v1.3.0 + libmatroska v1.4.0

Видео
Идентификатор : 1
Формат : AVC
Формат/Информация : Advanced Video Codec
Профиль формата : High@L4.1
Параметр CABAC формата : Да
Параметр ReFrames формата : 6 кадров
Идентификатор кодека : V_MPEG4/ISO/AVC
Продолжительность : 1 ч. 44 м.
Битрейт : 3530 Кбит/сек
Ширина : 1280 пикселей
Высота : 720 пикселей
Соотношение сторон : 16:9
Режим частоты кадров : Постоянный
Частота кадров : 23,976 кадра/сек
Цветовое пространство : YUV
Субдискретизация насыщенности : 4:2:0
Битовая глубина : 8 бит
Тип развёртки : Прогрессивная
Бит/(Пиксели*Кадры) : 0.160
Размер потока : 2,52 Гбайт (87%)
Библиотека кодирования : x264 core 138 r2356 a1d3d17
Настройки программы : cabac=1 / ref=6 / deblock=1:-3:-3 / analyse=0x3:0x133 / me=umh / subme=10 / psy=1 / psy_rd=1.00:0.05 / mixed_ref=1 / me_range=32 / chroma_me=1 / trellis=2 / 8x8dct=1 / cqm=0 / deadzone=21,11 / fast_pskip=0 / chroma_qp_offset=-3 / threads=6 / lookahead_threads=1 / sliced_threads=0 / nr=0 / decimate=0 / interlaced=0 / bluray_compat=0 / constrained_intra=0 / bframes=8 / b_pyramid=2 / b_adapt=2 / b_bias=0 / direct=3 / weightb=1 / open_gop=0 / weightp=2 / keyint=240 / keyint_min=24 / scenecut=40 / intra_refresh=0 / rc=2pass / mbtree=0 / bitrate=3530 / ratetol=1.0 / qcomp=0.60 / qpmin=0 / qpmax=69 / qpstep=4 / cplxblur=20.0 / qblur=0.5 / ip_ratio=1.40 / pb_ratio=1.30 / aq=1:1.00
Default : Да
Forced : Нет

Аудио
Идентификатор : 2
Формат : AC-3
Формат/Информация : Audio Coding 3
Расширение режима : CM (complete main)
Параметр Endianness формата : Big
Идентификатор кодека : A_AC3
Продолжительность : 1 ч. 44 м.
Вид битрейта : Постоянный
Битрейт : 448 Кбит/сек
Каналы : 6 каналов
Расположение каналов : Front: L C R, Side: L R, LFE
Частота : 48,0 КГц
Битовая глубина : 16 бит
Метод сжатия : С потерями
Размер потока : 335 Мбайт (11%)
Default : Да
Forced : Нет



Над музыкальным оформлением картины работало сразу несколько известных музыкантов, среди которых Максим Фадеев, Анастасия Максимова, Сергей Баневич, Олег Воляндо, Юрий Игнатов, Сергей Парамонов. На одной из вечеринок «Кинотавра» певец, музыкант и сопродюсер «Куки» Андрей Ковалёв исполнил саундтрек «Ангел» из кинофильма. Настя Добрынина танцевала вокруг в костюме маленькой феи.
Из интервью А. Ковалёва газете «Вечерняя Москва»:
ЦитатаКто-то писал:
«Я сразу влюбился в этот фильм. Таких историй нам сегодня очень не хватает. А ведь они делают человека добрее и светлее. А что касается Насти… Мне уже кажется, что это моя дочка. Я просто не мог не помочь создателям этого фильма».
На момент съёмок Настя Добрынина не умела читать и все реплики заучивала со слов матери.
В финальных титрах указано: Жека — Павел Деревянко, Серёга — Юрий Колокольников, хотя на самом деле наоборот (Серёга — Павел Деревянко, а Жека — Юрий Колокольников).
В фильме снималась мать исполнительницы главной роли, Насти Добрыниной. Актриса Алевтина Добрынина сыграла кассиршу.
Во многих интернет-источниках написано, что роль отца Лены исполнил Александр Пороховщиков, но на самом деле в фильме снимался Юрий Беляев.
В 2013 году ожидался выход фильма «Кука-2» с участием французских актеров — Жерара Депардьё и Катрин Денёв.
загрузка...
Правила, инструкции, FAQ!!!
Торрент  Добавлен [17 июл 2014, 20:30] Скачать торрент
Скачать торрент
[ Размер 15.29 КБ / Просмотров 8 ]

Статус
Проверен 
 
Размер  2.91 ГБ
Приватный: Нет (DHT включён)
.torrent скачан  114
Как залить торрент? | Как скачать Torrent? | Как смотреть и слушать онлайн?  


     Отправить личное сообщение
   
Страница 1 из 1
Показать сообщения за:  Поле сортировки  
Начать новую тему Ответить на тему

   Похожие торренты   Автор   Ответы   Просмотры   Последнее сообщение 
В этой теме нет новых непрочитанных сообщений. Скачать торрент Проверен Кука (2007) BDRip

в форуме Драмы, Мелодрамы, Размер: 1.46 ГБ, Здоровье: 100%

Anonymous

0
73|3

69
85

17 июл 2014, 20:25

Anonymous Перейти к последнему сообщению

В этой теме нет новых непрочитанных сообщений. Скачать торрент Проверен Кука (2007) BDRip 1080p

в форуме 720p | 1080p, Размер: 4.36 ГБ, Здоровье: 100%

Anonymous

0
53|6

25
375

26 сен 2014, 16:47

Anonymous Перейти к последнему сообщению

В этой теме нет новых непрочитанных сообщений. Скачать торрент Проверен David Gilmour - Remember That Night - 2007 [720p.DTS.x264] [2007, Rock, BDRip]

в форуме Концерты (HD-Video), Размер: 10.98 ГБ, Здоровье: 100%

Anonymous

0
31|7

64
0

23 окт 2016, 19:56

Anonymous Перейти к последнему сообщению

В этой теме нет новых непрочитанных сообщений. Скачать торрент Проверен Elton John 60: Live at Madison Square Garden 2007 720p BDRip DTS x264 [2007, Pop-Rock, HDTVRip]

в форуме Концерты (HD-Video), Размер: 7.94 ГБ, Здоровье: 100%

Anonymous

0
8|3

22
0

23 окт 2016, 19:15

Anonymous Перейти к последнему сообщению

В этой теме нет новых непрочитанных сообщений. Скачать торрент Проверен Рэкетир (2007) BDRip 720p

в форуме 720p | 1080p, Размер: 4.35 ГБ, Здоровье: 100%

Anonymous

0
103|26

39
691

06 фев 2015, 18:47

Anonymous Перейти к последнему сообщению



Сейчас этот форум просматривают: нет зарегистрированных пользователей и гости: 4


Вы не можете начинать темы
Вы не можете отвечать на сообщения
Вы не можете редактировать свои сообщения
Вы не можете удалять свои сообщения
Вы не можете добавлять вложения

Перейти:  

!ВНИМАНИЕ!
 Ресурс не предоставляет электронные версии произведений, а занимается лишь коллекционированием и каталогизацией ссылок, присылаемых и публикуемых на форуме нашими читателями. Если вы являетесь правообладателем какого-либо представленного материала и не желаете чтобы ссылка на него находилась в нашем каталоге, свяжитесь с нами и мы незамедлительно удалим её. Файлы для обмена на трекере предоставлены пользователями сайта, и администрация не несёт ответственности за их содержание. Просьба не заливать файлы, защищенные авторскими правами, а также файлы нелегального содержания!