На всех торрентах на трекере установлена скидка на скачивание в размере 100 процентов(а).
 Возможность скачивания торрента НЕ зависит от ограничений при низком ратио, низком аплоаде, требуемом ратио или требуемом аплоаде.


Начать новую тему Ответить на тему
Статистика раздачи
Размер: 7.75 ГБ | Добавлен: 28 окт 2012, 11:54 | Скачали: 2
Сидеров: 0  [0 байт/сек]    Личеров: 0  [0 байт/сек]
Пред. тема | След. тема 

Автор
Сообщение

СообщениеДобавлено: 28 окт 2012, 11:54 

Информация о фильме
Название: Джеймс Бонд 007: Казино Рояль
Оригинальное название: James Bond 007: Casino Royale
Год выхода: 2006
Жанр: Боевик, триллер, приключения
Режиссер: Мартин Кэмпбелл
В ролях: Дэниэл Крэйг, Ева Грин, Мадс Миккелсен, Джуди Денч, Джеффри Райт, Джанкарло Джаннини, Катерина Мурино, Симон Абкарян, Исаак Де Банколе, Еспер Кристенсен, Ивана Миличевич, Тобиаш Мензес, Клаудио Сантамария, Себастьен Фука, Малкольм Синклер, Ричард Саммел, Людгер Пистор, Джозеф Миллсон, Дауд Шах, Клеменс Шик, Эммануель Авена, Том Чэдбон, Эд, Урбано Барберини, Цай Чинь, Чарли Леви, Лазар Ристовски, Том Со, Верушка фон Лендорф, Дэниэл Андреас, Карлос Леаль, Кристина Коул, Юрген Таррач, Джон Голд, Джерри Инзерилло, Дайан Хартфорд, Джесика Миллер, Лео Странски, Пол Бхаттачарджи, Криспин Бонем-Картер, Саймон Кокс

О фильме:
Фильм "Казино Рояль" - своеобразное возвращение к истокам Бондианы. Он снят по первой книге Яна Флеминга о Джеймсе Бонде, хотя сюжет и претерпел в киноварианте ряд непринципиальных изменений. Именно в этом фильме начинающий секретный агент, брутальный и серьёзный парень из британской разведки, становится непревзойдённым суперагентом 007. Именно здесь ему предстоит не только разделаться в нелёгкой борьбе, как с оружием в руках, так и за карточным столом (по долгу службы!), с подпольным банкиром Ле Шиффром, отмывающим деньги сразу нескольких могучих террористических организаций, но и запомнить раз и навсегда на будущее: если роман перерастает в истинную любовь, то боль, которую она способна причинить, тоже будет абсолютно настоящей... Дебют Дэниела Крэйга в роли агента 007, вопреки первоначальным сомнениям многих, оказавшийся вполне успешным.




Страна: Великобритания, Чехия, США, Германия, Багамы
Выпущено: Columbia Pictures
Продолжительность: 02:24:33
Перевод: Профессиональный (Дублированный)

Файл
Кодек: x264
Формат: MKV
Качество: BDRip 1080p
Видео: AVC (High@L4.1) 1920x800 (2.40:1), 23.976 fps, 6400 kbps, 0,174 Bits/(Pixel*Frame)
Аудио 1: Dolby Digital (AC-3) 5.1 ch, 640 kbps (Rus)
Аудио 2: Dolby Digital (AC-3) 5.1 ch, 640 kbps (Eng)
Субтитры: Русские, Английские
Размер: (1/3 BD-R)

General
Unique ID : 228598821681759487692137078260129491115 (0xABFA881678222837A3C87B67452268AB)
Format : Matroska
Format version : Version 2
File size : 7.75 GiB
Duration : 2h 24mn
Overall bit rate : 7 676 Kbps
Movie name : Казино Рояль (2006) BDRip (1080p)
Encoded date : UTC 2012-10-26 18:31:23
Writing application : mkvmerge v5.8.0 ('No Sleep / Pillow') built on Sep 2 2012 15:37:04
Writing library : libebml v1.2.3 + libmatroska v1.3.0

Video
ID : 1
Format : AVC
Format/Info : Advanced Video Codec
Format profile : High@L4.1
Format settings, CABAC : Yes
Format settings, ReFrames : 5 frames
Codec ID : V_MPEG4/ISO/AVC
Duration : 2h 24mn
Bit rate : 6 400 Kbps
Width : 1 920 pixels
Height : 800 pixels
Display aspect ratio : 2.40:1
Frame rate mode : Constant
Frame rate : 23.976 fps
Color space : YUV
Chroma subsampling : 4:2:0
Bit depth : 8 bits
Scan type : Progressive
Bits/(Pixel*Frame) : 0.174
Stream size : 6.30 GiB (81%)
Title : Release by Alex260680
Writing library : x264 core 128 r2216M 198a7ea
Encoding settings : cabac=1 / ref=5 / deblock=1:0:0 / analyse=0x3:0x133 / me=umh / subme=11 / psy=1 / psy_rd=1.00:0.10 / mixed_ref=1 / me_range=48 / chroma_me=1 / trellis=2 / 8x8dct=1 / cqm=0 / deadzone=21,11 / fast_pskip=0 / chroma_qp_offset=-3 / threads=12 / lookahead_threads=2 / sliced_threads=0 / nr=0 / decimate=0 / interlaced=0 / bluray_compat=0 / constrained_intra=0 / bframes=5 / b_pyramid=2 / b_adapt=2 / b_bias=0 / direct=3 / weightb=1 / open_gop=0 / weightp=2 / keyint=240 / keyint_min=23 / scenecut=40 / intra_refresh=0 / rc=2pass / mbtree=0 / bitrate=6400 / ratetol=1.0 / qcomp=0.60 / qpmin=0 / qpmax=69 / qpstep=4 / cplxblur=20.0 / qblur=0.5 / ip_ratio=1.40 / pb_ratio=1.30 / aq=1:1.00
Language : English
Default : Yes
Forced : No

Audio #1
ID : 2
Format : AC-3
Format/Info : Audio Coding 3
Mode extension : CM (complete main)
Format settings, Endianness : Big
Codec ID : A_AC3
Duration : 2h 24mn
Bit rate mode : Constant
Bit rate : 640 Kbps
Channel(s) : 6 channels
Channel positions : Front: L C R, Side: L R, LFE
Sampling rate : 48.0 KHz
Bit depth : 16 bits
Compression mode : Lossy
Stream size : 662 MiB (8%)
Title : DUB
Language : Russian
Default : Yes
Forced : No

Audio #2
ID : 3
Format : AC-3
Format/Info : Audio Coding 3
Mode extension : CM (complete main)
Format settings, Endianness : Big
Codec ID : A_AC3
Duration : 2h 24mn
Bit rate mode : Constant
Bit rate : 640 Kbps
Channel(s) : 6 channels
Channel positions : Front: L C R, Side: L R, LFE
Sampling rate : 48.0 KHz
Bit depth : 16 bits
Compression mode : Lossy
Stream size : 662 MiB (8%)
Title : Original
Language : English
Default : No
Forced : No

Text #1
ID : 4
Format : UTF-8
Codec ID : S_TEXT/UTF8
Codec ID/Info : UTF-8 Plain Text
Language : Russian
Default : No
Forced : No

Text #2
ID : 5
Format : UTF-8
Codec ID : S_TEXT/UTF8
Codec ID/Info : UTF-8 Plain Text
Language : English
Default : No
Forced : No

Menu
00:00:00.000 : en:Chapter1
00:09:37.285 : en:Chapter2
00:19:30.502 : en:Chapter3
00:25:35.325 : en:Chapter4
00:35:18.241 : en:Chapter5
00:39:58.854 : en:Chapter6
00:45:21.760 : en:Chapter7
00:57:50.383 : en:Chapter8
01:07:21.620 : en:Chapter9
01:17:11.376 : en:Chapter10
01:30:05.400 : en:Chapter11
01:38:40.497 : en:Chapter12
01:43:28.952 : en:Chapter13
01:54:02.377 : en:Chapter14
02:05:44.703 : en:Chapter15
02:13:19.032 : en:Chapter16
02:24:32.872 : en:Chapter17

загрузка...
Правила, инструкции, FAQ!!!
Торрент  Добавлен [28 окт 2012, 11:54] Скачать торрент
Скачать торрент
[ Размер 19.97 КБ / Просмотров 31 ]

Статус
Проверен 
 
Размер  7.75 ГБ
Приватный: Нет (DHT включён)
.torrent скачан  2
Как залить торрент? | Как скачать Torrent? | Как смотреть и слушать онлайн?  


     Отправить личное сообщение
   
Страница 1 из 1
Показать сообщения за:  Поле сортировки  
Начать новую тему Ответить на тему

   Похожие торренты   Автор   Ответы   Просмотры   Последнее сообщение 
В этой теме нет новых непрочитанных сообщений. Скачать торрент 007: Казино Рояль / Casino Royale (Мартин Кэмпбелл / Martin Campbell) [2006, Боевик, приключения, BDRip] [UnCut / Полная версия] Dub

в форуме Боевики, Размер: 1.46 ГБ, Здоровье: 0%

Anonymous

0
0|0

219
0

11 фев 2014, 09:16

Anonymous Перейти к последнему сообщению

В этой теме нет новых непрочитанных сообщений. Скачать торрент Джеймс Бонд 007. Квант милосердия / James Bond 007. Quantum of Solace (Марк Форстер / Marc Forster) [2008 г., Боевик, триллер, приключения, BDRip-AVC]

в форуме Боевики, Размер: 2.04 ГБ, Здоровье: 100%

Anonymous

0
48|0

61
0

15 апр 2014, 08:20

Anonymous Перейти к последнему сообщению

В этой теме нет новых непрочитанных сообщений. Скачать торрент Проверен [iPad] Джеймс Бонд 007: Вид на убийство / James Bond 007: A View to a Kill (Джон Глен / John Glen) [1985, США, Великобритания, Боевик, триллер, приключения, BDRip] DUB, Original (Eng), Sub (Rus, Eng)

в форуме Фильмы для iPod, iPhone, iPad, Размер: 3.14 ГБ, Здоровье: 75%

Anonymous

0
3|4

36
0

14 май 2015, 00:01

Anonymous Перейти к последнему сообщению

В этой теме нет новых непрочитанных сообщений. Скачать торрент [VIDEO] Джеймс Бонд. Агент 007 - Коллекция / James Bond 007 - Collection (Теренс Янг, Гай Хэмилтон, Льюис Гилберт, Питер Р. Хант, Джон Глен, Мартин Кэмпбелл и др.) [1962-2012, боевик, триллер, приключения, BDRip] [MP4, 640x]

в форуме Видео для смартфонов и КПК, Размер: 26.78 ГБ, Здоровье: 100%

Anonymous

0
56|27

48
0

30 янв 2014, 06:46

Anonymous Перейти к последнему сообщению

В этой теме нет новых непрочитанных сообщений. Скачать торрент Проверен [iPhone] Джеймс Бонд. Агент 007: Золотой Глаз / James Bond 007: Golden Eye (Мартин Кэмпбелл / Martin Campbell) [1995, Боевик, триллер, криминал, HDRip, 480x200]

в форуме Фильмы для iPod, iPhone, iPad, Размер: 718.96 МБ, Здоровье: 100%

Anonymous

0
7|2

36
1

14 май 2015, 00:26

Anonymous Перейти к последнему сообщению



Сейчас этот форум просматривают: нет зарегистрированных пользователей и гости: 6


Вы не можете начинать темы
Вы не можете отвечать на сообщения
Вы не можете редактировать свои сообщения
Вы не можете удалять свои сообщения
Вы не можете добавлять вложения

Перейти:  

!ВНИМАНИЕ!
 Ресурс не предоставляет электронные версии произведений, а занимается лишь коллекционированием и каталогизацией ссылок, присылаемых и публикуемых на форуме нашими читателями. Если вы являетесь правообладателем какого-либо представленного материала и не желаете чтобы ссылка на него находилась в нашем каталоге, свяжитесь с нами и мы незамедлительно удалим её. Файлы для обмена на трекере предоставлены пользователями сайта, и администрация не несёт ответственности за их содержание. Просьба не заливать файлы, защищенные авторскими правами, а также файлы нелегального содержания!