На всех торрентах на трекере установлена скидка на скачивание в размере 100 процентов(а).
 Возможность скачивания торрента НЕ зависит от ограничений при низком ратио, низком аплоаде, требуемом ратио или требуемом аплоаде.


Начать новую тему Ответить на тему
Статистика раздачи
Размер: 14.62 ГБ | Добавлен: 12 июл 2014, 21:34 | Скачали: 68
Сидеров: 2  [0 байт/сек]    Личеров: 0  [0 байт/сек]
Пред. тема | След. тема 

Автор
Сообщение

СообщениеДобавлено: 12 июл 2014, 21:34 

Название: Водная жизнь
Оригинальное название: The Life Aquatic with Steve Zissou
Год выхода: 2004
Жанр: Комедия, приключения
Режиссер: Уэс Андерсон

В ролях: Билл Мюррэй, Оуэн Уилсон, Кейт Бланшетт, Анжелика Хьюстон, Уиллем Дефо, Джефф Голдблюм, Майкл Гэмбон, Ноа Тейлор, Бад Корт, Сеу Жоржи, Робин Коэн, Варис Ахлувалиа, Нильс Коизуми, Павел Вдовчак, Мэттью Грей Гублер, Сеймур Кэссел, Антонио Монда, Изабелла Блоу, Джеймс Хэмилтон, Мелани Геррен, Наццарено Пйана, Радд Симмонс, Леонардо Джованнелли, Генри С.Ф. Купер мл., Пьетро Рагуса, Эрик Чейз Андерсон, Роберт Уилсон, Дон МакКиннон, Алессио Сантини, Паоло Сиригнани, Эндрю Вейселл, Никколо Сенни

О фильме:
Если вашего напарника съела редкая ягуаровая акула, не стоит горевать впустую и бездействовать. Это говорит вам Стив Зиссу - светило океанографии, бесстрашный исследователь морских глубин, чье имя вписано золотом на скрижалях истории аккурат между Жан-Жаком Кусто и капитаном Немо. А если еще не вписано, то непременно будет - после очередной экспедиции, целью которой является отыскать уникальную ягуаровую акулу. Помимо научного интереса, Стив не прочь утолить жажду мести: ведь именно эта рыбка скушала его коллегу! А чтобы вояж оказался как можно более запоминающимся, герой комплектует команду своей легендарной субмарины "Беллафонте" самыми невменяемыми персонажами: от выдающего себя за его сына типа до беременной журналистки. И пока за штурвалом подлодки Стив Зиссу, ничто не в силах помешать его одиссее - ни пираты, ни шторма, ни злые кусачие акулы - ни даже сам Стив Зиссу!..



MPAA: R - Лицам до 17 лет обязательно присутствие взрослого



Страна: США / Touchstone Pictures
Продолжительность: 01:58:44
Перевод: Профессиональный многоголосый + профессиональный двухголосый + оригинал


Качество: BDRip 1080p
Видео: AVC, 1920x820 (2.35:1), 14932 kbps, 23,976 fps, 0,396 bpp
Аудио №1: русский / AC3 / 5.1 / 48 kHz / 448 kbps / 16 bit |MVO|
Аудио №2: русский / AC3 / 5.1 / 48 kHz / 384 kbps / 16 bit |DVO|
Аудио №3: английский / DTS / 5.1 / 48 kHz / 1510 kbps / 24 bit
Субтитры: русские, английские (full, SDH)



x264 [info]: frame I:1101 Avg QP:16.60 size:242409
x264 [info]: frame P:32531 Avg QP:17.72 size:126446
x264 [info]: frame B:137190 Avg QP:19.46 size: 67266
x264 [info]: consecutive B-frames: 1.0% 0.9% 5.9% 9.6% 13.9% 58.5% 5.5% 1.6% 1.6% 0.9% 0.3% 0.2%

Format : Matroska
Format version : Version 4 / Version 2
File size : 14.6 GiB
Duration : 1h 58mn
Overall bit rate : 17.6 Mbps
Movie name : Vodnaya.zhiznj.2004.x264.BDRip 1080p - Vikosol
Encoded date : UTC 2014-06-02 06:05:12
Writing application : mkvmerge v6.8.0 ('Theme for Great Cities') 64bit built on Mar 2 2014 21:34:26
Writing library : libebml v1.3.0 + libmatroska v1.4.1

Video
ID : 1
Format : AVC
Format/Info : Advanced Video Codec
Format profile : High@L4.1
Format settings, CABAC : Yes
Format settings, ReFrames : 4 frames
Codec ID : V_MPEG4/ISO/AVC
Duration : 1h 58mn
Bit rate : 14.9 Mbps
Width : 1 920 pixels
Height : 820 pixels
Display aspect ratio : 2.35:1
Frame rate : 23.976 fps
Color space : YUV
Chroma subsampling : 4:2:0
Bit depth : 8 bits
Scan type : Progressive
Bits/(Pixel*Frame) : 0.396
Stream size : 12.4 GiB (85%)
Writing library : x264 core 142 r2409+42 04be48a tMod [8-bit@all X86_64]
Encoding settings : cabac=1 / ref=4 / deblock=1:-3:-3 / analyse=0x3:0x133 / me=umh / subme=11 / psy=1 / fade_compensate=0.00 / psy_rd=1.00:0.00 / mixed_ref=1 / me_range=32 / chroma_me=1 / trellis=2 / 8x8dct=1 / cqm=0 / deadzone=21,11 / fast_pskip=0 / chroma_qp_offset=-2 / threads=6 / lookahead_threads=1 / sliced_threads=0 / nr=0 / decimate=0 / interlaced=0 / bluray_compat=0 / constrained_intra=0 / fgo=0 / bframes=11 / b_pyramid=2 / b_adapt=2 / b_bias=0 / direct=1 / weightb=1 / open_gop=0 / weightp=2 / keyint=240 / keyint_min=23 / scenecut=40 / intra_refresh=0 / rc=crf / mbtree=0 / crf=18.0000 / qcomp=0.70 / qpmin=0:0:0 / qpmax=69:69:69 / qpstep=4 / ip_ratio=1.40 / pb_ratio=1.30 / aq=3:0.80 / aq-sensitivity=10.00 / aq-factor=1.00:1.00:1.00 / aq2=0 / aq3=0
Language : English

Audio #1
ID : 2
Format : AC-3
Format/Info : Audio Coding 3
Mode extension : CM (complete main)
Codec ID : A_AC3
Duration : 1h 58mn
Bit rate mode : Constant
Bit rate : 448 Kbps
Channel(s) : 6 channels
Channel positions : Front: L C R, Side: L R, LFE
Sampling rate : 48.0 KHz
Bit depth : 16 bits
Compression mode : Lossy
Stream size : 381 MiB (3%)
Title : MVO
Language : Russian

Audio #2
ID : 3
Format : AC-3
Format/Info : Audio Coding 3
Mode extension : CM (complete main)
Codec ID : A_AC3
Duration : 1h 58mn
Bit rate mode : Constant
Bit rate : 384 Kbps
Channel(s) : 6 channels
Channel positions : Front: L C R, Side: L R, LFE
Sampling rate : 48.0 KHz
Bit depth : 16 bits
Compression mode : Lossy
Stream size : 326 MiB (2%)
Title : DVO - Tycoon-studio
Language : Russian

Audio #3
ID : 4
Format : DTS
Format/Info : Digital Theater Systems
Codec ID : A_DTS
Duration : 1h 58mn
Bit rate mode : Constant
Bit rate : 1 510 Kbps
Channel(s) : 6 channels
Channel positions : Front: L C R, Side: L R, LFE
Sampling rate : 48.0 KHz
Bit depth : 24 bits
Compression mode : Lossy
Stream size : 1.25 GiB (9%)
Language : English

Text #1
ID : 5
Format : UTF-8
Codec ID : S_TEXT/UTF8
Codec ID/Info : UTF-8 Plain Text
Language : Russian

Text #2
ID : 6
Format : UTF-8
Codec ID : S_TEXT/UTF8
Codec ID/Info : UTF-8 Plain Text
Title : Full
Language : English

Text #3
ID : 7
Format : UTF-8
Codec ID : S_TEXT/UTF8
Codec ID/Info : UTF-8 Plain Text
Title : SDH
Language : English

Menu
00:00:00.000 : en:Chapter 01
00:05:03.428 : en:Chapter 02
00:09:41.330 : en:Chapter 03
00:13:24.011 : en:Chapter 04
00:14:59.398 : en:Chapter 05
00:16:39.206 : en:Chapter 06
00:19:27.082 : en:Chapter 07
00:21:11.436 : en:Chapter 08
00:25:16.806 : en:Chapter 09
00:27:25.352 : en:Chapter 10
00:29:48.620 : en:Chapter 11
00:32:50.718 : en:Chapter 12
00:34:31.235 : en:Chapter 13
00:36:04.662 : en:Chapter 14
00:38:10.663 : en:Chapter 15
00:41:12.261 : en:Chapter 16
00:45:20.092 : en:Chapter 17
00:47:01.360 : en:Chapter 18
00:50:10.590 : en:Chapter 19
00:53:47.307 : en:Chapter 20
00:56:58.957 : en:Chapter 21
01:06:37.410 : en:Chapter 22
01:13:45.295 : en:Chapter 23
01:21:37.183 : en:Chapter 24
01:24:40.283 : en:Chapter 25
01:34:43.678 : en:Chapter 26
01:40:04.540 : en:Chapter 27
01:45:08.385 : en:Chapter 28
01:50:28.538 : en:Chapter 29
01:51:49.786 : en:Chapter 30

Сюжет фильма является пародийной вариацией «Моби Дика» Германа Мелвилла.
Джейн читает вслух своему ребенку «В поисках утраченного времени» Марселя Пруста.
Красные шапки, которые носят герои, напрямую отсылают к Жаку Иву Кусто, знаменитому подводнику и документалисту, творчеству которого и посвящен фильм.
Во время съёмок фильма Билл Мюррей стал дипломированным подводником, проведя под водой более 40 часов.
еще 1 факт


Цитатакто-то писал:
За исходник спасибо MediaClub
[*]Сохранены оригинальные чаптеры как на Blu-ray.

[*]Автор рипа: Vikosol
загрузка...
Правила, инструкции, FAQ!!!
Торрент  Добавлен [12 июл 2014, 21:34] Скачать торрент
Скачать торрент
[ Размер 73.61 КБ / Просмотров 19 ]

Статус
Проверен 
 
Размер  14.62 ГБ
Приватный: Нет (DHT включён)
.torrent скачан  68
Как залить торрент? | Как скачать Torrent? | Как смотреть и слушать онлайн?  


     Отправить личное сообщение
   
Страница 1 из 1
Показать сообщения за:  Поле сортировки  
Начать новую тему Ответить на тему

   Похожие торренты   Автор   Ответы   Просмотры   Последнее сообщение 
В этой теме нет новых непрочитанных сообщений. Скачать торрент Проверен Водная жизнь / The Life Aquatic with Steve Zissou (2004) BDRip | P, P2

в форуме Комедии, Размер: 2.18 ГБ, Здоровье: 0%

Anonymous

0
0|0

32
1

12 июл 2014, 21:28

Anonymous Перейти к последнему сообщению

В этой теме нет новых непрочитанных сообщений. Скачать торрент Проверен Водная жизнь / The Life Aquatic with Steve Zissou (2004) BDRip 720p | P

в форуме 720p | 1080p, Размер: 3.1 ГБ, Здоровье: 100%

Anonymous

0
11|0

23
303

12 июл 2014, 21:22

Anonymous Перейти к последнему сообщению

В этой теме нет новых непрочитанных сообщений. Скачать торрент Незаконченная жизнь / An Unfinished Life (2005) BDRip 1080p

в форуме 720p | 1080p, Размер: 7.75 ГБ, Здоровье: 100%

Anonymous

0
1|0

33
2

14 янв 2014, 13:43

Anonymous Перейти к последнему сообщению

В этой теме нет новых непрочитанных сообщений. Скачать торрент Жизнь короля / Life of a King (2013) BDRip 1080p | L1

в форуме 720p | 1080p, Размер: 8.08 ГБ, Здоровье: 0%

Anonymous

0
0|0

35
0

09 мар 2014, 08:54

Anonymous Перейти к последнему сообщению

В этой теме нет новых непрочитанных сообщений. Скачать торрент Проверен Жизнь этого парня / This Boy's Life (1993) BDRip 1080p

в форуме 720p | 1080p, Размер: 7.75 ГБ, Здоровье: 10%

Гость

0
14|137

44
6

28 мар 2015, 14:47

Гость Перейти к последнему сообщению



Сейчас этот форум просматривают: нет зарегистрированных пользователей и гости: 1


Вы не можете начинать темы
Вы не можете отвечать на сообщения
Вы не можете редактировать свои сообщения
Вы не можете удалять свои сообщения
Вы не можете добавлять вложения

Перейти:  

!ВНИМАНИЕ!
 Ресурс не предоставляет электронные версии произведений, а занимается лишь коллекционированием и каталогизацией ссылок, присылаемых и публикуемых на форуме нашими читателями. Если вы являетесь правообладателем какого-либо представленного материала и не желаете чтобы ссылка на него находилась в нашем каталоге, свяжитесь с нами и мы незамедлительно удалим её. Файлы для обмена на трекере предоставлены пользователями сайта, и администрация не несёт ответственности за их содержание. Просьба не заливать файлы, защищенные авторскими правами, а также файлы нелегального содержания!