На всех торрентах на трекере установлена скидка на скачивание в размере 100 процентов(а).
 Возможность скачивания торрента НЕ зависит от ограничений при низком ратио, низком аплоаде, требуемом ратио или требуемом аплоаде.


Начать новую тему Ответить на тему
Статистика раздачи
Размер: 7.94 ГБ | Добавлен: 11 июл 2014, 23:31 | Скачали: 0
Сидеров: 50  [0 байт/сек]    Личеров: 1  [0 байт/сек]
Пред. тема | След. тема 

Автор
Сообщение

СообщениеДобавлено: 11 июл 2014, 23:31 

Саботаж / Sabotage (2014) BDRip [1080p]

Год выпуска: 2014
Производство: США, 5150 Action, Albert S. Ruddy Productions, Crave Films, DEA Productions, Open Road Films (II), QED International, Roth Films
Жанр: Боевик, Триллер, Драма, Криминал
Перевод: Дублированный (Чистый звук)
Субтитры: Отсутствуют

Дата мировой премьеры: 19 марта 2014
Дата российской премьеры: 17 апреля 2014, «Централ Партнершип»
Дата выхода DVD релиза: 29 июля 2014, «Lizard Cinema Trade»

Режиссер: Дэвид Эйр
Продюсер: Дэвид Эйр, Билл Блок, Пол Хэнсон
Актеры: Арнольд Шварценеггер, Терренс Ховард, Сэм Уортингтон, Макс Мартини, Оливия Уильямс, Мартин Донован, Мирей Инос, Кевин Вэнс, Джо Манганьелло, Джош Холлоуэй

Описание фильма:
История начинается с операции элитного подразделения из управления по борьбе с наркотиками, нагрянувшего на явочную квартиру наркокартеля. Команда решает скрыть от начальства, что в результате налёта они обогатились на миллионы долларов, но вскоре хранить тайну становится всё сложнее: кто-то по одному убирает всех участвовавших в операции.



Рейтинг MPAA: PG-17
Возраст: 18+

Продолжительность: 01:49:41
Качество видео: BDRip [profile-LQ]

Видеокодек: MPEG-4 AVC/H.264
Битрейт видео: 8475 kb/s
Размер кадра: 1920x1040
Аудио #1: 48 kHz, AC3, 2/0 (L,R) ch, ~384 kbps avg (Русский) / Дубляж, Чистый
Аудио #2: 48 kHz, DTS, 3/2 (L,C,R,l,r) + LFE ch, ~1509 kbps avg (Английский) / Оригинал
Код:
Код:
Общее
Уникальный идентификатор                 : 198817351573899490497662692172889811225 (0x9592D43EFACCD768B3471ED0AAEB6919)
Полное имя                               : D:\Раздачи\Sabotage.2014.BDRip.1080p.NNM-CLUB.mkv
Формат                                   : Matroska
Версия формата                           : Version 4 / Version 2
Размер файла                             : 7,94 Гбайт
Продолжительность                        : 1 ч. 49 м.
Общий поток                              : 10,4 Мбит/сек
Дата кодирования                         : UTC 2014-07-11 07:50:25
Программа кодирования                    : mkvmerge v6.5.0 ('Isn't she lovely') built on Oct 20 2013 12:50:05
Библиотека кодирования                   : libebml v1.3.0 + libmatroska v1.4.1

Видео
Идентификатор                            : 1
Формат                                   : AVC
Формат/Информация                        : Advanced Video Codec
Профиль формата                          :
Параметр CABAC формата                   : Да
Параметр ReFrames формата                : 4 кадра
Идентификатор кодека                     : V_MPEG4/ISO/AVC
Продолжительность                        : 1 ч. 49 м.
Битрейт                                  : 8475 Кбит/сек
Ширина                                   : 1920 пикселей
Высота                                   : 1040 пикселей
Соотношение сторон                       : 1,85:1
Режим частоты кадров                     : Постоянный
Частота кадров                           : 23,976 кадра/сек
Цветовое пространство                    : YUV
Субдискретизация насыщенности            : 4:2:0
Битовая глубина                          : 8 бит
Тип развёртки                            : Прогрессивная
Бит/(Пиксели*Кадры)                      : 0.177
Размер потока                            : 6,34 Гбайт (80%)
Библиотека кодирования                   : x264 core 142 r2431 ac76440
Настройки программы                      : cabac=1 / ref=4 / deblock=1:0:0 / analyse=0x3:0x133 / me=umh / subme=7 / psy=1 / psy_rd=1.00:0.00 / mixed_ref=1 / me_range=16 / chroma_me=1 / trellis=1 / 8x8dct=1 / cqm=0 / deadzone=21,11 / fast_pskip=0 / chroma_qp_offset=-2 / threads=18 / lookahead_threads=3 / sliced_threads=0 / nr=0 / decimate=1 / interlaced=0 / bluray_compat=0 / constrained_intra=0 / bframes=3 / b_pyramid=2 / b_adapt=1 / b_bias=0 / direct=1 / weightb=1 / open_gop=0 / weightp=2 / keyint=250 / keyint_min=23 / scenecut=40 / intra_refresh=0 / rc_lookahead=40 / rc=2pass / mbtree=1 / bitrate=8475 / ratetol=1.0 / qcomp=0.60 / qpmin=0 / qpmax=69 / qpstep=4 / cplxblur=20.0 / qblur=0.5 / ip_ratio=1.40 / aq=1:1.00
Язык                                     : English
Default                                  : Да
Forced                                   : Нет

Аудио #1
Идентификатор                            : 2
Формат                                   : AC-3
Формат/Информация                        : Audio Coding 3
Расширение режима                        : CM (complete main)
Параметр Endianness формата              : Big
Идентификатор кодека                     : A_AC3
Продолжительность                        : 1 ч. 49 м.
Вид битрейта                             : Постоянный
Битрейт                                  : 384 Кбит/сек
Каналы                                   : 2 канала
Расположение каналов                     : Front: L R
Частота                                  : 48,0 КГц
Битовая глубина                          : 16 бит
Метод сжатия                             : С потерями
Размер потока                            : 301 Мбайт (4%)
Default                                  : Да
Forced                                   : Нет

Аудио #2
Идентификатор                            : 3
Формат                                   : DTS
Формат/Информация                        : Digital Theater Systems
Режим                                    : 16
Параметр Endianness формата              : Big
Идентификатор кодека                     : A_DTS
Продолжительность                        : 1 ч. 49 м.
Вид битрейта                             : Постоянный
Битрейт                                  : 1509 Кбит/сек
Каналы                                   : 6 каналов
Расположение каналов                     : Front: L C R, Side: L R, LFE
Частота                                  : 48,0 КГц
Битовая глубина                          : 24 бит
Метод сжатия                             : С потерями
Размер потока                            : 1,16 Гбайт (15%)
Язык                                     : English
Default                                  : Нет
Forced                                   : Нет

Меню
00:00:00.000                             : en:00:00:00.000
00:09:58.556                             : en:00:09:58.556
00:13:13.126                             : en:00:13:13.126
00:19:44.308                             : en:00:19:44.308
00:25:16.932                             : en:00:25:16.932
00:30:09.599                             : en:00:30:09.599
00:34:21.977                             : en:00:34:21.977
00:37:33.376                             : en:00:37:33.376
00:43:00.745                             : en:00:43:00.745
00:48:32.118                             : en:00:48:32.118
00:53:13.107                             : en:00:53:13.107
00:57:38.622                             : en:00:57:38.622
01:03:43.778                             : en:01:03:43.778
01:07:59.450                             : en:01:07:59.450
01:14:38.557                             : en:01:14:38.557
01:18:42.551                             : en:01:18:42.551
01:22:41.165                             : en:01:22:41.165
01:28:49.491                             : en:01:28:49.491
01:35:39.317                             : en:01:35:39.317
01:42:47.828                             : en:01:42:47.828
Скриншоты:
загрузка...
Правила, инструкции, FAQ!!!
Торрент  Добавлен [11 июл 2014, 23:31] Скачать торрент
Скачать торрент
[ Размер 40.4 КБ / Просмотров 11 ]

Статус
Проверен 
 
Размер  7.94 ГБ
Приватный: Нет (DHT включён)
.torrent скачан  0
Как залить торрент? | Как скачать Torrent? | Как смотреть и слушать онлайн?  


     Отправить личное сообщение
   
Страница 1 из 1
Показать сообщения за:  Поле сортировки  
Начать новую тему Ответить на тему

   Похожие торренты   Автор   Ответы   Просмотры   Последнее сообщение 
В этой теме нет новых непрочитанных сообщений. Скачать торрент Проверен Саботаж / Sabotage (2014) BDRip 720p | Чистый звук

в форуме 720p | 1080p, Размер: 4.66 ГБ, Здоровье: 0%

Anonymous

0
0|0

120
0

11 июл 2014, 17:10

Anonymous Перейти к последнему сообщению

В этой теме нет новых непрочитанных сообщений. Скачать торрент Проверен Саботаж / Sabotage (1996) BDRip

в форуме Боевики, Размер: 1.46 ГБ, Здоровье: 100%

Гость

0
31|6

92
11

07 фев 2016, 18:36

Гость Перейти к последнему сообщению

В этой теме нет новых непрочитанных сообщений. Саботаж / Sabotage (2014) HDRip | Чистый звук

в форуме Новинки кино, Размер: 1.46 ГБ, Здоровье: 100%

Anonymous

0
352|31

123
13

11 июл 2014, 17:13

Anonymous Перейти к последнему сообщению

В этой теме нет новых непрочитанных сообщений. Скачать торрент Проверен Рио 2 / Rio 2 (2014) BDRip 1080p от Ash61 | 3D-Video | halfOU | Line

в форуме HD-Video в 3D, Размер: 7.14 ГБ, Здоровье: 0%

Anonymous

0
0|0

105
2

29 июн 2014, 08:52

Anonymous Перейти к последнему сообщению

В этой теме нет новых непрочитанных сообщений. Скачать торрент Помпеи / Pompeii (2014) BDRip [1080p] 3D [Вертикальная анаморфная стереопара] [Line]

в форуме HD-Video в 3D, Размер: 10.29 ГБ, Здоровье: 0%

Anonymous

0
0|0

102
4

03 май 2014, 07:57

Anonymous Перейти к последнему сообщению



Сейчас этот форум просматривают: нет зарегистрированных пользователей и гости: 4


Вы не можете начинать темы
Вы не можете отвечать на сообщения
Вы не можете редактировать свои сообщения
Вы не можете удалять свои сообщения
Вы не можете добавлять вложения

Перейти:  

!ВНИМАНИЕ!
 Ресурс не предоставляет электронные версии произведений, а занимается лишь коллекционированием и каталогизацией ссылок, присылаемых и публикуемых на форуме нашими читателями. Если вы являетесь правообладателем какого-либо представленного материала и не желаете чтобы ссылка на него находилась в нашем каталоге, свяжитесь с нами и мы незамедлительно удалим её. Файлы для обмена на трекере предоставлены пользователями сайта, и администрация не несёт ответственности за их содержание. Просьба не заливать файлы, защищенные авторскими правами, а также файлы нелегального содержания!