На всех торрентах на трекере установлена скидка на скачивание в размере 100 процентов(а).
 Возможность скачивания торрента НЕ зависит от ограничений при низком ратио, низком аплоаде, требуемом ратио или требуемом аплоаде.


Начать новую тему Ответить на тему
Статистика раздачи
Размер: 11.55 ГБ | Добавлен: 11 июл 2014, 22:00 | Скачали: 282
Сидеров: 15  [0 байт/сек]    Личеров: 4  [0 байт/сек]
Пред. тема | След. тема 

Автор
Сообщение

СообщениеДобавлено: 11 июл 2014, 22:00 

Название: Ван Хельсинг
Оригинальное название: Van Helsing
Год выхода: 2004
Жанр: Фэнтези, боевик, триллер, детектив, приключения
Режиссер: Стивен Соммерс

В ролях: Хью Джекман, Кейт Бекинсейл, Ричард Роксбург, Дэвид Уэнэм, Шулер Хенсли, Елена Анайя, Уилл Кемп, Кевин Дж. О’Коннор, Алан Армстронг, Сильвия Коллока

О фильме:
Глубоко в Карпатах лежит таинственная страна Трансильвания — мир, в котором зло встречается на каждом шагу, мир, в котором опасность оживает с заходом солнца, и где монстры, живущие в глубине человеческих кошмаров, обретают форму. В этот мир попадает легендарный охотник на чудовищ Ван Хельсинг, рождённый на страницах романа «Дракула» Брэма Стокера.

В своей непрерывной битве против сил зла и за освобождение мира от порождений ада, Ван Хельсинг, по заданию секретного общества, отправляется в Трансильванию, чтобы скрестить оружие со смертельно опасным, наделённым неведомой силой графом Дракулой. На помощь ему внезапно приходит бесстрашная Анна Валери, поставившая целью избавить свою семью от векового проклятья, наложенного убитым вампиром.



Страна: США, Чехия
Студия: Universal Pictures, Carpathian Pictures
Продолжительность: 02:11:31
Перевод: Дублированный |R5| + Авторский (одноголосый, закадровый) Андрей Гаврилов + Оригинал


Кодек: x264
Качество: BDRip 1080p (источник: HDCLUB / Blu-ray Remux / 1080p)
Видео: 1920х1040 (1.85:1), 10844 Kbps, 23.976 fps, 0.227 bit/pixel
Аудио #1: 48.0 kHz, AC3 Dolby Digital, 3/2 (L,C,R,l,r) + LFE ch, 448 kbps [Дубляж, R5]
Аудио #2: 48.0 kHz, AC3 Dolby Digital, 3/2 (L,C,R,l,r) + LFE ch, 640 kbps [Авторский, А. Гаврилов]
Аудио #3: 48.0 kHz, AC3 Dolby Digital, 3/2 (L,C,R,l,r) + LFE ch, 640 kbps [Оригинал, Английский]
Субтитры: Русские, английские

Семпл



x264 [info]: frame I:1355 Avg QP:15.69 size:198226
x264 [info]: frame P:48951 Avg QP:18.24 size: 89052
x264 [info]: frame B:138879 Avg QP:20.38 size: 43666
General
Unique ID : 217399883755200809277848013698865065945 (0xA38DB1D18150040D8D823C0EBC586FD9)
Complete name : E:Van.Helsing.2004.x264.BDRip.1080p.mkv
Format : Matroska
Format version : Version 2
File size : 11.5 GiB
Duration : 2h 11mn
Overall bit rate : 12.6 Mbps
Encoded date : UTC 2013-12-31 18:56:15
Writing application : mkvmerge v5.8.0 ('No Sleep / Pillow') built on Sep 2 2012 15:37:04
Writing library : libebml v1.2.3 + libmatroska v1.3.0

Video
ID : 1
Format : AVC
Format/Info : Advanced Video Codec
Format profile : High@L4.1
Format settings, CABAC : Yes
Format settings, ReFrames : 4 frames
Codec ID : V_MPEG4/ISO/AVC
Duration : 2h 11mn
Bit rate : 10.8 Mbps
Width : 1 920 pixels
Height : 1 040 pixels
Display aspect ratio : 1.85:1
Frame rate mode : Constant
Frame rate : 23.976 fps
Color space : YUV
Chroma subsampling : 4:2:0
Bit depth : 8 bits
Scan type : Progressive
Bits/(Pixel*Frame) : 0.227
Stream size : 9.73 GiB (84%)
Writing library : x264 core 140 r2377 1ca7bb9
Encoding settings : cabac=1 / ref=4 / deblock=1:-3:-3 / analyse=0x3:0x133 / me=tesa / subme=11 / psy=1 / psy_rd=1.00:0.00 / mixed_ref=1 / me_range=32 / chroma_me=1 / trellis=2 / 8x8dct=1 / cqm=0 / deadzone=21,11 / fast_pskip=0 / chroma_qp_offset=-2 / threads=12 / lookahead_threads=2 / sliced_threads=0 / nr=0 / decimate=0 / interlaced=0 / bluray_compat=0 / constrained_intra=0 / bframes=8 / b_pyramid=2 / b_adapt=2 / b_bias=0 / direct=3 / weightb=0 / open_gop=0 / weightp=2 / keyint=240 / keyint_min=23 / scenecut=40 / intra_refresh=0 / rc=2pass / mbtree=0 / bitrate=10844 / ratetol=1.0 / qcomp=0.60 / qpmin=0 / qpmax=69 / qpstep=4 / cplxblur=20.0 / qblur=0.5 / ip_ratio=1.40 / pb_ratio=1.30 / aq=1:1.00
Language : English
Default : Yes
Forced : No

Audio #1
ID : 2
Format : AC-3
Format/Info : Audio Coding 3
Mode extension : CM (complete main)
Format settings, Endianness : Big
Codec ID : A_AC3
Duration : 2h 11mn
Bit rate mode : Constant
Bit rate : 448 Kbps
Channel count : 6 channels
Channel positions : Front: L C R, Side: L R, LFE
Sampling rate : 48.0 KHz
Bit depth : 16 bits
Compression mode : Lossy
Stream size : 421 MiB (4%)
Title : Дубляж, R5
Language : Russian
Default : Yes
Forced : No

Audio #2
ID : 3
Format : AC-3
Format/Info : Audio Coding 3
Mode extension : CM (complete main)
Format settings, Endianness : Big
Codec ID : A_AC3
Duration : 2h 11mn
Bit rate mode : Constant
Bit rate : 640 Kbps
Channel count : 6 channels
Channel positions : Front: L C R, Side: L R, LFE
Sampling rate : 48.0 KHz
Bit depth : 16 bits
Compression mode : Lossy
Stream size : 602 MiB (5%)
Title : Авторский, А. Гаврилов
Language : Russian
Default : No
Forced : No

Audio #3
ID : 4
Format : AC-3
Format/Info : Audio Coding 3
Mode extension : CM (complete main)
Format settings, Endianness : Big
Codec ID : A_AC3
Duration : 2h 11mn
Bit rate mode : Constant
Bit rate : 640 Kbps
Channel count : 6 channels
Channel positions : Front: L C R, Side: L R, LFE
Sampling rate : 48.0 KHz
Bit depth : 16 bits
Compression mode : Lossy
Stream size : 602 MiB (5%)
Title : Оригинал, Английский
Language : English
Default : No
Forced : No

Text #1
ID : 5
Format : UTF-8
Codec ID : S_TEXT/UTF8
Codec ID/Info : UTF-8 Plain Text
Language : Russian
Default : No
Forced : No

Text #2
ID : 6
Format : UTF-8
Codec ID : S_TEXT/UTF8
Codec ID/Info : UTF-8 Plain Text
Language : English
Default : No
Forced : No

Menu
00:00:00.000 : en:
00:07:49.218 : en:
00:13:42.613 : en:
00:20:14.504 : en:
00:23:12.724 : en:
00:33:58.036 : en:
00:38:22.258 : en:
00:40:34.265 : en:
00:48:41.793 : en:
00:53:18.862 : en:
01:02:07.056 : en:
01:04:31.784 : en:
01:08:42.952 : en:
01:09:54.982 : en:
01:14:17.703 : en:
01:18:55.313 : en:
01:23:57.866 : en:
01:29:19.103 : en:
01:31:11.340 : en:
01:37:30.970 : en:
01:40:34.528 : en:
01:43:46.345 : en:
01:45:56.808 : en:
01:50:21.197 : en:
01:55:16.075 : en:
01:57:08.396 : en:
01:58:42.240 : en:
02:02:01.188 : en:
загрузка...
Правила, инструкции, FAQ!!!
Торрент  Добавлен [11 июл 2014, 22:00] Скачать торрент
Скачать торрент
[ Размер 29.5 КБ / Просмотров 15 ]

Статус
Проверен 
 
Размер  11.55 ГБ
Приватный: Нет (DHT включён)
.torrent скачан  282
Как залить торрент? | Как скачать Torrent? | Как смотреть и слушать онлайн?  


     Отправить личное сообщение
   
Страница 1 из 1
Показать сообщения за:  Поле сортировки  
Начать новую тему Ответить на тему

   Похожие торренты   Автор   Ответы   Просмотры   Последнее сообщение 
В этой теме нет новых непрочитанных сообщений. Скачать торрент Проверен Ван Хельсинг / Van Helsing (2004) BDRip 720p

в форуме 720p | 1080p, Размер: 7.22 ГБ, Здоровье: 100%

Anonymous

0
2|0

135
19

11 июл 2014, 21:57

Anonymous Перейти к последнему сообщению

В этой теме нет новых непрочитанных сообщений. Скачать торрент Проверен Van Helsing 2: Смерти вопреки / The Incredible Adventures of Van Helsing 2 (2014) PC | Steam-Rip от R.G. Игроманы

в форуме Горячие Новинки, Размер: 11.53 ГБ, Здоровье: 100%

Anonymous

0
30|3

244
13

30 окт 2014, 23:19

Anonymous Перейти к последнему сообщению

В этой теме нет новых непрочитанных сообщений. Скачать торрент Проверен Контроль / Control (2004) BDRip 1080p | P, A

в форуме 720p | 1080p, Размер: 12.21 ГБ, Здоровье: 100%

Anonymous

0
99|11

149
6

16 май 2016, 22:05

Anonymous Перейти к последнему сообщению

В этой теме нет новых непрочитанных сообщений. Скачать торрент Два брата / Two brothers (2004) BDRip 1080p

в форуме 720p | 1080p, Размер: 7.95 ГБ, Здоровье: 100%

Anonymous

0
10|2

59
97

17 мар 2014, 21:54

Anonymous Перейти к последнему сообщению

В этой теме нет новых непрочитанных сообщений. Скачать торрент Проверен Послезавтра / The Day After Tomorrow (2004) BDRip 1080p

в форуме 720p | 1080p, Размер: 11.5 ГБ, Здоровье: 100%

Anonymous

0
23|4

42
95

06 ноя 2014, 17:31

Anonymous Перейти к последнему сообщению



Сейчас этот форум просматривают: нет зарегистрированных пользователей и гости: 1


Вы не можете начинать темы
Вы не можете отвечать на сообщения
Вы не можете редактировать свои сообщения
Вы не можете удалять свои сообщения
Вы не можете добавлять вложения

Перейти:  

!ВНИМАНИЕ!
 Ресурс не предоставляет электронные версии произведений, а занимается лишь коллекционированием и каталогизацией ссылок, присылаемых и публикуемых на форуме нашими читателями. Если вы являетесь правообладателем какого-либо представленного материала и не желаете чтобы ссылка на него находилась в нашем каталоге, свяжитесь с нами и мы незамедлительно удалим её. Файлы для обмена на трекере предоставлены пользователями сайта, и администрация не несёт ответственности за их содержание. Просьба не заливать файлы, защищенные авторскими правами, а также файлы нелегального содержания!