На всех торрентах на трекере установлена скидка на скачивание в размере 100 процентов(а).
 Возможность скачивания торрента НЕ зависит от ограничений при низком ратио, низком аплоаде, требуемом ратио или требуемом аплоаде.


Начать новую тему Ответить на тему
Статистика раздачи
Размер: 8.19 ГБ | Добавлен: 11 июл 2014, 10:06 | Скачали: 0
Сидеров: 10  [0 байт/сек]    Личеров: 2  [0 байт/сек]
Пред. тема | След. тема 

Автор
Сообщение

СообщениеДобавлено: 11 июл 2014, 10:06 

Кукловоды / The Puppet Masters (1994) BDRip [1080p]

Год выпуска: 1994
Производство: США / Hollywood Pictures
Жанр: Триллер, Фантастика
Перевод: Многоголосый, Двухголосый х2, Авторский одноголосый
Субтитры: Отсутствуют

Дата мировой премьеры: 21 октября 1994

Режиссер: Стюарт Орм
Продюсер: Ральф Уинтер, Джеймс Аксотис, Майкл Энгелберг
Актеры: Дональд Сазерленд, Эрик Тал, Джули Уорнер, Кит Дэвид, Уилл Пэттон, Ричард Белзер, Том Мэйсон, Яфет Котто, Джерри Бэммен, Сэм Андерсон

Описание фильма:
Экранизация одноименного романа Р. Хайнлайна. По местному каналу новостей одного небольшого городка США проходит сообщение о том, что в окрестностях городка совершил посадку НЛО. Спустя некоторое время тот же канал опровергает высказанную ранее информацию, представляя ее как выдумку местных мальчишек.
Тем не менее, сотрудники секретной службы направляются туда для проверки сообщения и обнаруживают плохо скроенный макет космической «тарелки».
Чрезмерная любезность и гостеприимство местных жителей заставляют их задуматься о том, что же случилось на самом деле. Уверенность приходит в тот момент, когда на спине одного из жителей городка они обнаруживают странного вида существо-паразита явно неземного происхождения. Но предотвратить беду становится поздно — число людей, зараженных пришельцами, увеличивается не по дням, а по часам.



Продолжительность: 01:48:55
Качество видео: BDRip

Видео: MPEG-4 AVC/H.264, 1920x816, ~10000 Kбит/сек, 23,976 кадра/сек, 0.266 Пиксели/Кадры
Аудио #1: AC-3, 192 Кбит/сек, 2 канала (Русский - Многоголосый ''Первый Канал'')
Аудио #2: AC-3, 192 Кбит/сек, 2 канала (Русский - Двухголосый ''Видеосервис'')
Аудио #3: AC-3, 192 Кбит/сек, 2 канала (Русский - Двухголосый ''НТВ+'')
Аудио #4: AC-3, 192 Кбит/сек, 2 канала (Русский - Авторский ''Сергей Кузнецов'')
Сэмпл: Скачать
Общее
Уникальный идентификатор : 192571084042623790322639373979641496231 (0x90DFD77AD60A1EAC8CB8BE48A3B0C2A7)
Полное имя : Кукловоды (The Puppet Masters) 1080p.mkv
Формат : Matroska
Версия формата : Version 2
Размер файла : 8,19 Гбайт
Продолжительность : 1 ч. 48 м.
Общий поток : 10,8 Мбит/сек
Дата кодирования : UTC 2014-07-10 23:57:27
Программа кодирования : mkvmerge v3.4.0 ('Rapunzel') сборка от May 15 2010 09:38:20
Библиотека кодирования : libebml v0.8.0 + libmatroska v0.9.0

Видео
Идентификатор : 1
Формат : AVC
Формат/Информация : Advanced Video Codec
Профиль формата :
Параметр CABAC формата : Да
Параметр ReFrames формата : 5 кадров
Идентификатор кодека : V_MPEG4/ISO/AVC
Продолжительность : 1 ч. 48 м.
Битрейт : 10000 Кбит/сек
Ширина : 1920 пикселей
Высота : 816 пикселей
Соотношение сторон : 2,35:1
Режим частоты кадров : Постоянный
Частота кадров : 23,976 кадра/сек
Цветовое пространство : YUV
Субдискретизация насыщенности : 4:2:0
Битовая глубина : 8 бит
Тип развёртки : Прогрессивная
Бит/(Пиксели*Кадры) : 0.266
Размер потока : 7,44 Гбайт (91%)
Заголовок : Кукловоды (The Puppet Masters) 1080p
Библиотека кодирования : x264 core 142 r2431 ac76440
Настройки программы : cabac=1 / ref=5 / deblock=1:-1:-1 / analyse=0x3:0x133 / me=umh / subme=11 / psy=1 / psy_rd=1.00:0.15 / mixed_ref=1 / me_range=64 / chroma_me=1 / trellis=2 / 8x8dct=1 / cqm=0 / deadzone=21,11 / fast_pskip=0 / chroma_qp_offset=-3 / threads=6 / lookahead_threads=1 / sliced_threads=0 / nr=0 / decimate=0 / interlaced=0 / bluray_compat=0 / constrained_intra=0 / bframes=16 / b_pyramid=2 / b_adapt=2 / b_bias=0 / direct=3 / weightb=1 / open_gop=0 / weightp=2 / keyint=240 / keyint_min=23 / scenecut=40 / intra_refresh=0 / rc_lookahead=60 / rc=2pass / mbtree=0 / bitrate=10000 / ratetol=1.0 / qcomp=0.60 / qpmin=0 / qpmax=69 / qpstep=4 / cplxblur=20.0 / qblur=0.5 / vbv_maxrate=50000 / vbv_bufsize=62500 / nal_hrd=none / filler=0 / ip_ratio=1.40 / pb_ratio=1.30 / aq=1:1.00
Язык : English
Default : Да
Forced : Нет

Аудио #1
Идентификатор : 2
Формат : AC-3
Формат/Информация : Audio Coding 3
Расширение режима : CM (complete main)
Параметр Endianness формата : Big
Идентификатор кодека : A_AC3
Продолжительность : 1 ч. 48 м.
Вид битрейта : Постоянный
Битрейт : 192 Кбит/сек
Каналы : 2 канала
Расположение каналов : Front: L R
Частота : 48,0 КГц
Битовая глубина : 16 бит
Метод сжатия : С потерями
Размер потока : 150 Мбайт (2%)
Заголовок : Многоголосый ''Первый Канал'' (AC-3, Постоянный, 192 Кбит/сек, 2 канала, 48,0 КГц, 16 бит)
Язык : Russian
Default : Да
Forced : Нет

Аудио #2
Идентификатор : 3
Формат : AC-3
Формат/Информация : Audio Coding 3
Расширение режима : CM (complete main)
Параметр Endianness формата : Big
Идентификатор кодека : A_AC3
Продолжительность : 1 ч. 48 м.
Вид битрейта : Постоянный
Битрейт : 192 Кбит/сек
Каналы : 2 канала
Расположение каналов : Front: L R
Частота : 48,0 КГц
Битовая глубина : 16 бит
Метод сжатия : С потерями
Размер потока : 150 Мбайт (2%)
Заголовок : Двухголосый ''Видеосервис'' (AC-3, Постоянный, 192 Кбит/сек, 2 канала, 48,0 КГц, 16 бит)
Язык : Russian
Default : Нет
Forced : Нет

Аудио #3
Идентификатор : 4
Формат : AC-3
Формат/Информация : Audio Coding 3
Расширение режима : CM (complete main)
Параметр Endianness формата : Big
Идентификатор кодека : A_AC3
Продолжительность : 1 ч. 48 м.
Вид битрейта : Постоянный
Битрейт : 192 Кбит/сек
Каналы : 2 канала
Расположение каналов : Front: L R
Частота : 48,0 КГц
Битовая глубина : 16 бит
Метод сжатия : С потерями
Размер потока : 150 Мбайт (2%)
Заголовок : Двухголосый ''НТВ+'' (AC-3, Постоянный, 192 Кбит/сек, 2 канала, 48,0 КГц, 16 бит)
Язык : Russian
Default : Нет
Forced : Нет

Аудио #4
Идентификатор : 5
Формат : AC-3
Формат/Информация : Audio Coding 3
Расширение режима : CM (complete main)
Параметр Endianness формата : Big
Идентификатор кодека : A_AC3
Продолжительность : 1 ч. 48 м.
Вид битрейта : Постоянный
Битрейт : 192 Кбит/сек
Каналы : 2 канала
Расположение каналов : Front: L R
Частота : 48,0 КГц
Битовая глубина : 16 бит
Метод сжатия : С потерями
Размер потока : 150 Мбайт (2%)
Заголовок : Авторский ''Сергей Кузнецов'' (AC-3, Постоянный, 192 Кбит/сек, 2 канала, 48,0 КГц, 16 бит)
Язык : Russian
Default : Нет
Forced : Нет

Меню
00:00:00.000 : en:00:00:00.000
00:04:04.285 : en:00:04:04.285
00:16:48.215 : en:00:16:48.215
00:30:27.534 : en:00:30:27.534
00:40:07.405 : en:00:40:07.405
00:49:29.299 : en:00:49:29.299
01:01:42.240 : en:01:01:42.240
01:09:53.147 : en:01:09:53.147
01:16:33.213 : en:01:16:33.213
01:31:02.748 : en:01:31:02.748
01:37:21.460 : en:01:37:21.460
01:43:07.139 : en:01:43:07.139
Скриншоты:

загрузка...
Правила, инструкции, FAQ!!!
Торрент  Добавлен [11 июл 2014, 10:06] Скачать торрент
Скачать торрент
[ Размер 41.66 КБ / Просмотров 6 ]

Статус
Проверен 
 
Размер  8.19 ГБ
Приватный: Нет (DHT включён)
.torrent скачан  0
Как залить торрент? | Как скачать Torrent? | Как смотреть и слушать онлайн?  


     Отправить личное сообщение
   
Страница 1 из 1
Показать сообщения за:  Поле сортировки  
Начать новую тему Ответить на тему

   Похожие торренты   Автор   Ответы   Просмотры   Последнее сообщение 
В этой теме нет новых непрочитанных сообщений. Скачать торрент Проверен Metallica - Masters Of Metal [2015, Thrash Metal, Documentary, BDRip 1080p]

в форуме Концерты (HD-Video), Размер: 5.46 ГБ, Здоровье: 100%

Anonymous

0
1|0

6
0

23 окт 2016, 16:11

Anonymous Перейти к последнему сообщению

В этой теме нет новых непрочитанных сообщений. Скачать торрент Проверен (Progressive Rock/Neo-Prog) Mad Puppet - King Laurin And His Rosegarden - 1994, FLAC (image+.cue), lossless

в форуме Progressive & Art-Rock, Размер: 422.86 МБ, Здоровье: 0%

Anonymous

0
0|0

1
0

29 авг 2016, 23:46

Anonymous Перейти к последнему сообщению

В этой теме нет новых непрочитанных сообщений. Скачать торрент Проверен Флинстоуны / The Flintstones (1994) BDRip 1080p | P, P2, A

в форуме 720p | 1080p, Размер: 8.38 ГБ, Здоровье: 100%

Гость

0
7|2

49
157

08 дек 2014, 18:18

Гость Перейти к последнему сообщению

В этой теме нет новых непрочитанных сообщений. Скачать торрент Проверен Дерзкий / Fresh (1994) BDRip [1080p] [AVO]

в форуме 720p | 1080p, Размер: 8.9 ГБ, Здоровье: 100%

Anonymous

0
319|8

163
2

29 дек 2014, 23:02

Anonymous Перейти к последнему сообщению

В этой теме нет новых непрочитанных сообщений. Скачать торрент Проверен Ворон / The Crow (1994) BDRip 1080p

в форуме 720p | 1080p, Размер: 4.37 ГБ, Здоровье: 100%

Гость

0
56|24

27
132

15 ноя 2016, 23:52

Гость Перейти к последнему сообщению



Сейчас этот форум просматривают: нет зарегистрированных пользователей и гости: 4


Вы не можете начинать темы
Вы не можете отвечать на сообщения
Вы не можете редактировать свои сообщения
Вы не можете удалять свои сообщения
Вы не можете добавлять вложения

Перейти:  

!ВНИМАНИЕ!
 Ресурс не предоставляет электронные версии произведений, а занимается лишь коллекционированием и каталогизацией ссылок, присылаемых и публикуемых на форуме нашими читателями. Если вы являетесь правообладателем какого-либо представленного материала и не желаете чтобы ссылка на него находилась в нашем каталоге, свяжитесь с нами и мы незамедлительно удалим её. Файлы для обмена на трекере предоставлены пользователями сайта, и администрация не несёт ответственности за их содержание. Просьба не заливать файлы, защищенные авторскими правами, а также файлы нелегального содержания!