На всех торрентах на трекере установлена скидка на скачивание в размере 100 процентов(а).
 Возможность скачивания торрента НЕ зависит от ограничений при низком ратио, низком аплоаде, требуемом ратио или требуемом аплоаде.


Начать новую тему Ответить на тему
Статистика раздачи
Размер: 5.51 ГБ | Добавлен: 11 июл 2014, 08:57 | Скачали: 19
Сидеров: 3  [0 байт/сек]    Личеров: 5  [0 байт/сек]
Пред. тема | След. тема 

Автор
Сообщение

СообщениеДобавлено: 11 июл 2014, 08:57 

Название: Лэйк Плэсид: Озеро страха
Оригинальное название: Lake Placid
Год выхода: 1999
Жанр: ужасы, фантастика, боевик
Режиссер: Стив Майнер

В ролях: Билл Пуллман, Бриджит Фонда, Оливер Платт, Брендан Глисон, Бетти Уайт, Дэвид Льюис, Тим Диксон, Наташа Мальте, Маришка Харгитей, Мередит Сэленджер

Сюжет фильма:
Лэйк Плэсид, тихое озеро, скрытое в девственных заповедных лесах Америки, завораживает своей древней красотой. Но эти спокойные воды окутывает ужасающая тайна, грозящая гибелью тем, кто захочет раскрыть ее.

На темном дне в предвкушении следующей жертвы затаилось гигантское чудовище, которому не место ни в этом времени, ни в этом озере. Несчастного, нарушившего невидимую границу, ожидает верная смерть.

Фатальная неизбежность леденит кровь и парализует разум, заставляя расставаться с надеждой на спасение. Какую цену придется заплатить, чтобы узнать тайну Озера Страха?



Выпущено: США
Продолжительность: 01:22:08
Перевод: Дублированный, профессиональный многоголосый, авторский
Субтитры: Нет


Формат: .mkv
Качество: BDRip-1080p (LAKE_PLACID_BDREMUX_HDCLUB)
Видео: 1920x812 at 23.976 fps, MPEG-4 AVC, ~7500 kbps avg
Аудио#1: Russian: 48 kHz, AC3, 3/2 (L,C,R,l,r) + LFE ch, ~384 kbps avg |Многоголосый закадровый, R5|
Аудио#2: Russian: 48 kHz, AC3, 2/0 (L,R) ch, ~256 kbps avg |Дубляж, Парадиз|
Аудио#3: Russian: 48 kHz, AC3, 2/0 (L,R) ch, ~192 kbps avg |Многоголосый закадровый, РТР|
Аудио#4: Russian: 48 kHz, AC3, 3/2 (L,C,R,l,r) + LFE ch, ~448 kbps avg |Одноголосый закадровый, Живов|
Аудио#5: Russian: 48 kHz, AC3, 2/0 (L,R) ch, ~192 kbps avg |Одноголосый закадровый, Дольский|
Аудио#6: Russian: 48 kHz, AC3, 2/0 (L,R) ch, ~192 kbps avg |Одноголосый закадровый, Кашкин|
Аудио#7: English: 48 kHz, AC3, 3/2 (L,C,R,l,r) + LFE ch, ~448 kbps avg

General
Unique ID : 247593647145330663654722712987053118771 (0xBA44CD49D318CF6FB077D47DD7B4D533)
Complete name : D:Ozero.Straha.(1999).BDRip.1080p.[-=DoMiNo=-].mkv
Format : Matroska
Format version : Version 4 / Version 2
File size : 5.51 GiB
Duration : 1h 22mn
Overall bit rate : 9 606 Kbps
Movie name : Ozero.Straha.(1999).BDRip.1080p.[-=DoMiNo=-]
Encoded date : UTC 2014-07-11 02:13:07
Writing application : mkvmerge v7.0.0 ('Where We Going') 64bit built on Jun 9 2014 15:16:27
Writing library : libebml v1.3.0 + libmatroska v1.4.1
DURATION : 01:22:08.032000000
NUMBER_OF_FRAMES : 154001
NUMBER_OF_BYTES : 275969792
_STATISTICS_WRITING_APP : mkvmerge v7.0.0 ('Where We Going') 64bit built on Jun 9 2014 15:16:27
_STATISTICS_WRITING_DATE_UTC : 2014-07-11 02:13:07
_STATISTICS_TAGS : BPS DURATION NUMBER_OF_FRAMES NUMBER_OF_BYTES
Attachment : Yes

Video
ID : 1
Format : AVC
Format/Info : Advanced Video Codec
Format profile : High@L4.1
Format settings, CABAC : Yes
Format settings, ReFrames : 5 frames
Codec ID : V_MPEG4/ISO/AVC
Duration : 1h 22mn
Bit rate : 7 500 Kbps
Width : 1 920 pixels
Height : 812 pixels
Display aspect ratio : 2.35:1
Frame rate mode : Constant
Frame rate : 23.976 fps
Color space : YUV
Chroma subsampling : 4:2:0
Bit depth : 8 bits
Scan type : Progressive
Bits/(Pixel*Frame) : 0.201
Stream size : 4.19 GiB (76%)
Writing library : x264 core 130 r2273 b3065e6
Encoding settings : cabac=1 / ref=5 / deblock=1:-3:-3 / analyse=0x3:0x133 / me=umh / subme=11 / psy=1 / psy_rd=1.00:0.50 / mixed_ref=1 / me_range=32 / chroma_me=1 / trellis=2 / 8x8dct=1 / cqm=0 / deadzone=21,11 / fast_pskip=0 / chroma_qp_offset=-3 / threads=12 / lookahead_threads=4 / sliced_threads=0 / slices=4 / nr=0 / decimate=0 / interlaced=0 / bluray_compat=0 / constrained_intra=0 / bframes=6 / b_pyramid=2 / b_adapt=2 / b_bias=0 / direct=3 / weightb=1 / open_gop=0 / weightp=2 / keyint=250 / keyint_min=23 / scenecut=40 / intra_refresh=0 / rc_lookahead=60 / rc=2pass / mbtree=1 / bitrate=7500 / ratetol=1.0 / qcomp=0.70 / qpmin=0 / qpmax=69 / qpstep=4 / cplxblur=20.0 / qblur=0.5 / ip_ratio=1.40 / aq=2:2.00
Default : Yes
Forced : No

Audio #1
ID : 2
Format : AC-3
Format/Info : Audio Coding 3
Mode extension : CM (complete main)
Format settings, Endianness : Big
Codec ID : A_AC3
Duration : 1h 22mn
Bit rate mode : Constant
Bit rate : 384 Kbps
Channel(s) : 6 channels
Channel positions : Front: L C R, Side: L R, LFE
Sampling rate : 48.0 KHz
Bit depth : 16 bits
Compression mode : Lossy
Stream size : 226 MiB (4%)
Title : |Многоголосый закадровый, R5|
Language : Russian
Default : Yes
Forced : No

Audio #2
ID : 3
Format : AC-3
Format/Info : Audio Coding 3
Mode extension : CM (complete main)
Format settings, Endianness : Big
Codec ID : A_AC3
Duration : 1h 22mn
Bit rate mode : Constant
Bit rate : 256 Kbps
Channel(s) : 2 channels
Channel positions : Front: L R
Sampling rate : 48.0 KHz
Bit depth : 16 bits
Compression mode : Lossy
Stream size : 150 MiB (3%)
Title : |Дубляж, Парадиз|
Language : Russian
Default : No
Forced : No

Audio #3
ID : 4
Format : AC-3
Format/Info : Audio Coding 3
Mode extension : CM (complete main)
Format settings, Endianness : Big
Codec ID : A_AC3
Duration : 1h 22mn
Bit rate mode : Constant
Bit rate : 192 Kbps
Channel(s) : 2 channels
Channel positions : Front: L R
Sampling rate : 48.0 KHz
Bit depth : 16 bits
Compression mode : Lossy
Stream size : 113 MiB (2%)
Title : |Многоголосый закадровый, РТР|
Language : Russian
Default : No
Forced : No

Audio #4
ID : 5
Format : AC-3
Format/Info : Audio Coding 3
Mode extension : CM (complete main)
Format settings, Endianness : Big
Codec ID : A_AC3
Duration : 1h 22mn
Bit rate mode : Constant
Bit rate : 448 Kbps
Channel(s) : 6 channels
Channel positions : Front: L C R, Side: L R, LFE
Sampling rate : 48.0 KHz
Bit depth : 16 bits
Compression mode : Lossy
Stream size : 263 MiB (5%)
Title : |Одноголосый закадровый, Живов|
Default : No
Forced : No

Audio #5
ID : 6
Format : AC-3
Format/Info : Audio Coding 3
Mode extension : CM (complete main)
Format settings, Endianness : Big
Codec ID : A_AC3
Duration : 1h 22mn
Bit rate mode : Constant
Bit rate : 192 Kbps
Channel(s) : 2 channels
Channel positions : Front: L R
Sampling rate : 48.0 KHz
Bit depth : 16 bits
Compression mode : Lossy
Stream size : 113 MiB (2%)
Title : |Одноголосый закадровый, Дольский|
Language : Russian
Default : No
Forced : No

Audio #6
ID : 7
Format : AC-3
Format/Info : Audio Coding 3
Mode extension : CM (complete main)
Format settings, Endianness : Big
Codec ID : A_AC3
Duration : 1h 22mn
Bit rate mode : Constant
Bit rate : 192 Kbps
Channel(s) : 2 channels
Channel positions : Front: L R
Sampling rate : 48.0 KHz
Bit depth : 16 bits
Compression mode : Lossy
Stream size : 113 MiB (2%)
Title : |Одноголосый закадровый, Кашкин|
Language : Russian
Default : No
Forced : No

Audio #7
ID : 8
Format : AC-3
Format/Info : Audio Coding 3
Mode extension : CM (complete main)
Format settings, Endianness : Big
Codec ID : A_AC3
Duration : 1h 22mn
Bit rate mode : Constant
Bit rate : 448 Kbps
Channel(s) : 6 channels
Channel positions : Front: L C R, Side: L R, LFE
Sampling rate : 48.0 KHz
Bit depth : 16 bits
Compression mode : Lossy
Stream size : 263 MiB (5%)
Title : Original ENG
Language : English
Default : No
Forced : No





загрузка...
Правила, инструкции, FAQ!!!
Торрент  Добавлен [11 июл 2014, 08:57] Скачать торрент
Скачать торрент
[ Размер 14.4 КБ / Просмотров 9 ]

Статус
Проверен 
 
Размер  5.51 ГБ
Приватный: Нет (DHT включён)
.torrent скачан  19
Как залить торрент? | Как скачать Torrent? | Как смотреть и слушать онлайн?  


     Отправить личное сообщение
   
Страница 1 из 1
Показать сообщения за:  Поле сортировки  
Начать новую тему Ответить на тему

   Похожие торренты   Автор   Ответы   Просмотры   Последнее сообщение 
В этой теме нет новых непрочитанных сообщений. Скачать торрент Проверен Лэйк Плэсид: Озеро страха / Lake Placid (1999) DVDRip-AVC

в форуме Ужасы, Размер: 2.04 ГБ, Здоровье: 100%

Anonymous

0
5|2

58
45

11 июл 2014, 09:01

Anonymous Перейти к последнему сообщению

В этой теме нет новых непрочитанных сообщений. Скачать торрент Проверен Райское озеро / Eden Lake (2008) BDRemux 1080p | D

в форуме BD-Remux, Размер: 15.1 ГБ, Здоровье: 100%

Anonymous

0
42|34

210
20

05 сен 2015, 19:15

Anonymous Перейти к последнему сообщению

В этой теме нет новых непрочитанных сообщений. Скачать торрент Черное озеро / Озеро нуар / Lake noir (2013) WEB-DLRip | L1

в форуме Ужасы, Размер: 1.37 ГБ, Здоровье: 0%

Anonymous

0
0|0

133
0

14 янв 2014, 14:44

Anonymous Перейти к последнему сообщению

В этой теме нет новых непрочитанных сообщений. Скачать торрент Проверен Озеро надежд / Hope Lake (2014) PC

в форуме Приключения и квесты|я ищу, Размер: 704.52 МБ, Здоровье: 100%

Anonymous

0
100|1

65
14

21 май 2014, 22:10

Anonymous Перейти к последнему сообщению

В этой теме нет новых непрочитанных сообщений. Скачать торрент Проверен Ruth Rendell / Рут Ренделл - The Lake Of Darkness / Озеро тьмы [2015, PDF, RUS]

в форуме Детективы и Боевики, Размер: 5.23 МБ, Здоровье: 0%

Anonymous

0
0|0

1
0

08 сен 2016, 20:54

Anonymous Перейти к последнему сообщению



Сейчас этот форум просматривают: нет зарегистрированных пользователей и гости: 1


Вы не можете начинать темы
Вы не можете отвечать на сообщения
Вы не можете редактировать свои сообщения
Вы не можете удалять свои сообщения
Вы не можете добавлять вложения

Перейти:  

!ВНИМАНИЕ!
 Ресурс не предоставляет электронные версии произведений, а занимается лишь коллекционированием и каталогизацией ссылок, присылаемых и публикуемых на форуме нашими читателями. Если вы являетесь правообладателем какого-либо представленного материала и не желаете чтобы ссылка на него находилась в нашем каталоге, свяжитесь с нами и мы незамедлительно удалим её. Файлы для обмена на трекере предоставлены пользователями сайта, и администрация не несёт ответственности за их содержание. Просьба не заливать файлы, защищенные авторскими правами, а также файлы нелегального содержания!