На всех торрентах на трекере установлена скидка на скачивание в размере 100 процентов(а).
 Возможность скачивания торрента НЕ зависит от ограничений при низком ратио, низком аплоаде, требуемом ратио или требуемом аплоаде.


Начать новую тему Ответить на тему
Статистика раздачи
Размер: 2.18 ГБ | Добавлен: 05 июл 2014, 23:36 | Скачали: 0
Сидеров: 22  [0 байт/сек]    Личеров: 2  [0 байт/сек]
Пред. тема | След. тема 

Автор
Сообщение

СообщениеДобавлено: 05 июл 2014, 23:36 

Верные друзья (1954) BDRip [H.264/720р-LQ]

«— А не макнуть ли нам академика?»

Год выпуска: 1954
Жанр: Мелодрама, Комедия
Производство: СССР /Киностудия «Мосфильм»

Описание фильма:
Когда-то давно на одной из московских окраин жили три товарища: Сашка-«кошачий парень», Борька — «чижик» и Васька — «индюк». Прошли годы. Чижик стал известным московским хирургом Чижовым, Сашка — профессором-животноводом Лапиным, Васька — академиком архитектуры Нестратовым, работающим на строительстве первых высоток столицы. Вспомнив данное когда-то друг другу обещание, верные друзья отправляются в плавание по реке на бревенчатом плоту. Для Лапина путешествие оказывается особенно счастливым: он встречает давно любимую и любящую его женщину.

Режиссер: Михаил Калатозов
Сценарий: Александр Галич, Константин Исаев
Композитор: Тихон Хренников
Актеры: Василий Меркурьев, Борис Чирков, Александр Борисов, Алексей Грибов, Лилия Гриценко, Людмила Шагалова, Алексей Покровский, Юрий Саранцев, Николай Сморчков, Георгий Георгиу, Михаил Пуговкин, Григорий Белов, Елена Вольская, Маргарита Жарова, Иван Рыжов, Николай Парфёнов, Владимир Андреев, Всеволод Санаев

Продолжительность: 01:40:29
Качество видео: BDRip



Дата мировой премьеры: 20 апреля 1954
Релиз на DVD: 11 января 2011, «Парадиз Медиа»
Релиз на Blu-Ray: 8 апреля 2014, «Lizard Cinema Trade»

Видеокодек: MPEG-4 AVC/H.264
Битрейт видео: ~2661 Кбит/сек
Размер кадра: 992x720
Аудиокодек: AC3 5.1
Битрейт аудио: 448 Кбит/сек
Наше всё!
В очередной раз убеждаюсь, что кино советской эпохи давал, даёт и будет давать фору большинству лент российского кинематографа. Несмотря на идеологию и жесточайший ценз кино времён отрочества моего дедушки смотрится легко и непринуждённо.
Я люблю его за чистоту и непорочность, за душу и разум! Вот вам в прямом смысле НАСТОЯЩИЕ верные друзья! С которыми огонь, вода и медные трубы не страшны!
К такому кино нельзя относится отрицательно. Его нельзя называть типичным, ведь оно даёт смысловую и духовную пищу, жизненно необходимую для развития и становления индивида.
Когда искромётный юмор вкупе с высокой моралью и общественным укладом ставят во главу угла происходит настоящее рождение очередного советского продукта, который я с удовольствием попробую ещё не раз!
Карловы Вары, 1954 год
Победитель (1):
Хрустальный глобус
General
Unique ID : 195985895641028447594196008387920521615 (0x937182B0BC23AAF29A53710F8267E98F)
Complete name : F:\Downloads\Верные друзья.mkv
Format : Matroska
Format version : Version 4 / Version 2
File size : 2.18 GiB
Duration : 1h 40mn
Overall bit rate : 3 111 Kbps
Encoded date : UTC 2014-06-27 23:18:55
Writing application : mkvmerge v6.4.1 ('Omega Point') built on Sep 16 2013 22:05:10
Writing library : libebml v1.3.0 + libmatroska v1.4.1

Video
ID : 1
Format : AVC
Format/Info : Advanced Video Codec
Format profile :
Format settings, CABAC : Yes
Format settings, ReFrames : 8 frames
Codec ID : V_MPEG4/ISO/AVC
Duration : 1h 40mn
Bit rate : 2 661 Kbps
Width : 992 pixels
Height : 720 pixels
Display aspect ratio : 1.378
Frame rate mode : Constant
Frame rate : 23.976 fps
Color space : YUV
Chroma subsampling : 4:2:0
Bit depth : 8 bits
Scan type : Progressive
Bits/(Pixel*Frame) : 0.155
Stream size : 1.83 GiB (84%)
Title : Верные друзья (1954)
Writing library : x264 core 125 r2208 d9d2288
Encoding settings : cabac=1 / ref=8 / deblock=1:-1:-1 / analyse=0x3:0x133 / me=umh / subme=9 / psy=1 / psy_rd=1.00:0.10 / mixed_ref=1 / me_range=32 / chroma_me=1 / trellis=2 / 8x8dct=1 / cqm=0 / deadzone=21,11 / fast_pskip=0 / chroma_qp_offset=-3 / threads=6 / lookahead_threads=1 / sliced_threads=0 / nr=0 / decimate=1 / interlaced=0 / bluray_compat=0 / constrained_intra=0 / bframes=3 / b_pyramid=2 / b_adapt=2 / b_bias=0 / direct=3 / weightb=1 / open_gop=0 / weightp=2 / keyint=250 / keyint_min=25 / scenecut=40 / intra_refresh=0 / rc_lookahead=60 / rc=2pass / mbtree=1 / bitrate=2661 / ratetol=1.0 / qcomp=0.60 / qpmin=0 / qpmax=69 / qpstep=4 / cplxblur=20.0 / qblur=0.5 / ip_ratio=1.40 / aq=1:1.00
Language : Russian
Default : Yes
Forced : No

Audio
ID : 2
Format : AC-3
Format/Info : Audio Coding 3
Mode extension : CM (complete main)
Format settings, Endianness : Big
Codec ID : A_AC3
Duration : 1h 40mn
Bit rate mode : Constant
Bit rate : 448 Kbps
Channel(s) : 6 channels
Channel positions : Front: L C R, Side: L R, LFE
Sampling rate : 48.0 KHz
Bit depth : 16 bits
Compression mode : Lossy
Stream size : 322 MiB (14%)
Title : AC3 5.1, 448 kbps, 48 kHz
Language : Russian
Default : Yes
Forced : No
Скриншоты:


загрузка...
Правила, инструкции, FAQ!!!
Торрент  Добавлен [05 июл 2014, 23:36] Скачать торрент
Скачать торрент
[ Размер 11.6 КБ / Просмотров 10 ]

Статус
Проверен 
 
Размер  2.18 ГБ
Приватный: Нет (DHT включён)
.torrent скачан  0
Как залить торрент? | Как скачать Torrent? | Как смотреть и слушать онлайн?  


     Отправить личное сообщение
   
Страница 1 из 1
Показать сообщения за:  Поле сортировки  
Начать новую тему Ответить на тему

   Похожие торренты   Автор   Ответы   Просмотры   Последнее сообщение 
В этой теме нет новых непрочитанных сообщений. Скачать торрент Проверен Верные друзья (Михаил Калатозов) [1954, СССР, Мелодрама, комедия, BDRip 1080p] Original Rus

в форуме Наше кино (HD Video), Размер: 7.22 ГБ, Здоровье: 100%

Anonymous

0
28|12

146
3

12 апр 2015, 15:07

Anonymous Перейти к последнему сообщению

В этой теме нет новых непрочитанных сообщений. Скачать торрент Проверен Верные друзья (1954) DVDRip

в форуме Комедии, Размер: 703.62 МБ, Здоровье: 100%

Anonymous

0
10|1

43
3

05 июл 2014, 23:46

Anonymous Перейти к последнему сообщению

В этой теме нет новых непрочитанных сообщений. Скачать торрент Проверен Наши верные друзья (1971) TS [H.264]

в форуме Развивающее Видео для детей, Размер: 70.05 МБ, Здоровье: 100%

Гость

0
2|1

19
0

01 дек 2015, 00:01

Гость Перейти к последнему сообщению

В этой теме нет новых непрочитанных сообщений. Скачать торрент Без чувств / Senseless (1998) BDRip [H.264/720р-LQ]

в форуме 720p | 1080p, Размер: 2.18 ГБ, Здоровье: 100%

Anonymous

0
16|1

45
39

08 янв 2014, 22:44

Anonymous Перейти к последнему сообщению

В этой теме нет новых непрочитанных сообщений. Скачать торрент Проверен Добыча / La proie (2011) BDRip 720р | L1, A

в форуме 720p | 1080p, Размер: 3.85 ГБ, Здоровье: 100%

Anonymous

0
97|35

53
401

15 сен 2014, 08:39

Anonymous Перейти к последнему сообщению



Сейчас этот форум просматривают: нет зарегистрированных пользователей и гости: 3


Вы не можете начинать темы
Вы не можете отвечать на сообщения
Вы не можете редактировать свои сообщения
Вы не можете удалять свои сообщения
Вы не можете добавлять вложения

Перейти:  

!ВНИМАНИЕ!
 Ресурс не предоставляет электронные версии произведений, а занимается лишь коллекционированием и каталогизацией ссылок, присылаемых и публикуемых на форуме нашими читателями. Если вы являетесь правообладателем какого-либо представленного материала и не желаете чтобы ссылка на него находилась в нашем каталоге, свяжитесь с нами и мы незамедлительно удалим её. Файлы для обмена на трекере предоставлены пользователями сайта, и администрация не несёт ответственности за их содержание. Просьба не заливать файлы, защищенные авторскими правами, а также файлы нелегального содержания!