На всех торрентах на трекере установлена скидка на скачивание в размере 100 процентов(а).
 Возможность скачивания торрента НЕ зависит от ограничений при низком ратио, низком аплоаде, требуемом ратио или требуемом аплоаде.


Начать новую тему Ответить на тему
Статистика раздачи
Размер: 5.32 ГБ | Добавлен: 05 июл 2014, 23:34 | Скачали: 0
Сидеров: 38  [0 байт/сек]    Личеров: 2  [0 байт/сек]
Пред. тема | След. тема 

Автор
Сообщение

СообщениеДобавлено: 05 июл 2014, 23:34 

Три плюс два (1963) HDTVRip [1080i]

Год выпуска: 1963
Жанр: Лирическая комедия
Производство: Рижская киностудия /Студия Горького

Режиссер: Генрих Оганисян
Сценарий: Сергей Михалков
Актеры: Наталья Кустинская, Наталья Фатеева, Андрей Миронов, Евгений Жариков, Геннадий Нилов, Бэзил Рэтбоун

Описание фильма:
Трое друзей из Москвы живут «дикарями» в замечательном месте с песчаным пляжем, пресной водой, тенью и дровами у самого моря. Отдыхают. Внезапно приезжают две незнакомки и заявляют, что это их старое место. Более того, они доказывают свое первенство, выкопав бутылку с письмом. Но уезжать ребята отказываются. Дамы же от своего места отказываться тоже не собираются и ставят палатку. Начинается тихая война, перерастающая со временем в любовь. Один из тех фильмов, которые можно пересматривать не один раз.



Дата мировой премьеры: 3 июля 1963
Дата выхода DVD релиза: 2 апреля 2009

Продолжительность: 01:24:23
Качество видео: HDTVRip

Видеокодек: MPEG-4 AVC/H.264
Битрейт видео: ~8466 kb/s
Размер кадра: 1920х1080
Аудио: AC3 5.1, 384 kb/s, 48 kHz [Русский]

Сэмпл
Complete name : E:\Три плюс два.mkv
Format : Matroska
Format version : Version 4 / Version 2
File size : 5.32 GiB
Duration : 1h 24mn
Overall bit rate : 9 030 Kbps
Encoded date : UTC 2014-06-08 16:19:10
Writing application : mkvmerge v6.6.0 ('The Edge Of The In Between') built on Dec 1 2013 17:55:00
Writing library : libebml v1.3.0 + libmatroska v1.4.1

Video
ID : 1
Format : AVC
Format/Info : Advanced Video Codec
Format profile :
Format settings, CABAC : Yes
Format settings, ReFrames : 3 frames
Codec ID : V_MPEG4/ISO/AVC
Duration : 1h 24mn
Bit rate : 8 466 Kbps
Width : 1 920 pixels
Height : 1 080 pixels
Display aspect ratio : 16:9
Frame rate mode : Constant
Frame rate : 25.000 fps
Standard : Component
Color space : YUV
Chroma subsampling : 4:2:0
Bit depth : 8 bits
Scan type : Interlaced
Scan order : Top Field First
Bits/(Pixel*Frame) : 0.163
Stream size : 4.99 GiB (94%)
Default : Yes
Forced : No
Color primaries : BT.709
Transfer characteristics : BT.709
Matrix coefficients : BT.709

Audio
ID : 2
Format : AC-3
Format/Info : Audio Coding 3
Mode extension : CM (complete main)
Format settings, Endianness : Big
Codec ID : A_AC3
Duration : 1h 24mn
Bit rate mode : Constant
Bit rate : 384 Kbps
Channel(s) : 6 channels
Channel positions : Front: L C R, Side: L R, LFE
Sampling rate : 48.0 KHz
Bit depth : 16 bits
Compression mode : Lossy
Stream size : 232 MiB (4%)
Language : Russian
Default : Yes
Forced : No
Скриншоты:

загрузка...
Правила, инструкции, FAQ!!!
Торрент  Добавлен [05 июл 2014, 23:34] Скачать торрент
Скачать торрент
[ Размер 27.29 КБ / Просмотров 12 ]

Статус
Проверен 
 
Размер  5.32 ГБ
Приватный: Нет (DHT включён)
.torrent скачан  0
Как залить торрент? | Как скачать Torrent? | Как смотреть и слушать онлайн?  


     Отправить личное сообщение
   
Страница 1 из 1
Показать сообщения за:  Поле сортировки  
Начать новую тему Ответить на тему

   Похожие торренты   Автор   Ответы   Просмотры   Последнее сообщение 
В этой теме нет новых непрочитанных сообщений. Скачать торрент Проверен Три плюс два (Генрих Оганисян) [1963, СССР, комедия, HDTVRip 720p]

в форуме Наше кино (HD Video), Размер: 3.85 ГБ, Здоровье: 100%

Anonymous

0
48|16

33
2

12 апр 2015, 15:01

Anonymous Перейти к последнему сообщению

В этой теме нет новых непрочитанных сообщений. Скачать торрент Проверен Три плюс два (Генрих Оганисян) [1963, СССР, комедия, HDTV 1080i] [широкоэкранная версия]

в форуме Наше кино (HD Video), Размер: 6.63 ГБ, Здоровье: 0%

Anonymous

0
0|0

32
0

12 апр 2015, 10:57

Anonymous Перейти к последнему сообщению

В этой теме нет новых непрочитанных сообщений. Скачать торрент Проверен (ProgRock) [LP][24/192] Yes 1969-1987 плюс Rick Wakeman плюс Anderson Bruford Wakeman Howe плюс Jon And Vangelis плюс Jonathan Elias, FLAC (image+.cue)

в форуме Зарубежный рок (оцифровки), Размер: 30.93 ГБ, Здоровье: 100%

Anonymous

0
10|3

3
0

27 авг 2016, 10:28

Anonymous Перейти к последнему сообщению

В этой теме нет новых непрочитанных сообщений. Скачать торрент Проверен Три плюс два (1963) DVDRip [H.264]

в форуме Комедии, Размер: 1.46 ГБ, Здоровье: 100%

Anonymous

0
21|2

225
1

05 июл 2014, 23:49

Anonymous Перейти к последнему сообщению

В этой теме нет новых непрочитанных сообщений. Скачать торрент Проверен Три плюс два (Генрих Оганисян) [1963 г., Комедия, DVDRip]

в форуме Кино СССР, Размер: 1.46 ГБ, Здоровье: 100%

Anonymous

0
56|19

23
0

21 окт 2014, 20:55

Anonymous Перейти к последнему сообщению



Сейчас этот форум просматривают: нет зарегистрированных пользователей и гости: 1


Вы не можете начинать темы
Вы не можете отвечать на сообщения
Вы не можете редактировать свои сообщения
Вы не можете удалять свои сообщения
Вы не можете добавлять вложения

Перейти:  

!ВНИМАНИЕ!
 Ресурс не предоставляет электронные версии произведений, а занимается лишь коллекционированием и каталогизацией ссылок, присылаемых и публикуемых на форуме нашими читателями. Если вы являетесь правообладателем какого-либо представленного материала и не желаете чтобы ссылка на него находилась в нашем каталоге, свяжитесь с нами и мы незамедлительно удалим её. Файлы для обмена на трекере предоставлены пользователями сайта, и администрация не несёт ответственности за их содержание. Просьба не заливать файлы, защищенные авторскими правами, а также файлы нелегального содержания!