На всех торрентах на трекере установлена скидка на скачивание в размере 100 процентов(а).
 Возможность скачивания торрента НЕ зависит от ограничений при низком ратио, низком аплоаде, требуемом ратио или требуемом аплоаде.


Начать новую тему Ответить на тему
Статистика раздачи
Размер: 2.05 ГБ | Добавлен: 05 июл 2014, 23:34 | Скачали: 0
Сидеров: 44  [0 байт/сек]    Личеров: 2  [0 байт/сек]
Пред. тема | След. тема 

Автор
Сообщение

СообщениеДобавлено: 05 июл 2014, 23:34 

Пес Барбос и необычный кросс, Самогонщики, «Сто грамм» для храбрости (1961-1976) BDRip [H.264/720р-LQ]

Год выпуска: 1961-1976
Жанр: Комедия, Короткометражный
Производство: СССР / Киностудия «Мосфильм»

Описание фильма:
В сборник вошли три новеллы: "Пес Барбос и необычный кросс" - рассказ о наказании постигшем на рыбалке троицу горе-браконьеров..., "Самогонщики" - Трус, Балбес и Бывалый решают поставить на широкую ногу изготовление самогона - и снова фиаско..., "Сто грамм для храбрости" - три сатирические новеллы антиалкогольной тематики...

Режиссер: Леонид Гайдай, Георгий Щукин, Борис Бушмелёв, Анатолий Маркелов
Сценарий: Константин Бровин, Леонид Гайдай, Григорий Горин, Виктория Токарева, Николай Пушков
Композитор: Никита Богословский, Карэн Хачатурян
Актеры: Евгений Моргунов, Георгий Вицин, Юрий Никулин, Игорь Ясулович, Юрий Кузьменков, Владимир Басов, Георгий Кавтарадзе, Михаил Светин, Валентина Титова, Элене Кипшидзе, Дима Шаройченко, Николай Гринько, Борислав Брондуков, Татьяна Васильева, Александр Белявский, Нинель Мышкова

Продолжительность: 01:44:25 (00:10:28 + 00:18:58 + 01:14:59)
Качество видео: BDRip
Cубтитры: Отсутствуют

Пес Барбос и необычный кросс (1961)

Дата мировой премьеры: 18 октября 1961

Самогонщики (1961)

Дата мировой премьеры: 8 января 1962
Дата выхода DVD релиза: 11 января 2011, «Парадиз Медиа»
Дата выхода Blu-Ray релиза: 16 апреля 2013, «Lizard Cinema Trade»

«Сто грамм» для храбрости (1976)

Дата мировой премьеры: 23 мая 1977

Видео: MPEG-4 AVC/H.264, 992x720, 1280x544, ~2350 Кбит/сек
Аудио: Русский, AС3 5.1, 448 kbps, 48 kHz
General
Unique ID : 208648263589286688802839062357427881420 (0x9CF831A167C7BE7490646CF0DA2C05CC)
Complete name : F:\Downloads\Пес Барбос и необычный кросс, Самогонщики, «Сто грамм» для храбрости\Пес Барбос и необычный кросс.mkv
Format : Matroska
Format version : Version 4 / Version 2
File size : 213 MiB
Duration : 10mn 28s
Overall bit rate : 2 850 Kbps
Encoded date : UTC 2014-05-05 13:28:32
Writing application : mkvmerge v6.4.1 ('Omega Point') built on Sep 16 2013 22:05:10
Writing library : libebml v1.3.0 + libmatroska v1.4.1

Video
ID : 1
Format : AVC
Format/Info : Advanced Video Codec
Format profile :
Format settings, CABAC : Yes
Format settings, ReFrames : 8 frames
Codec ID : V_MPEG4/ISO/AVC
Duration : 10mn 28s
Bit rate : 2 400 Kbps
Width : 992 pixels
Height : 720 pixels
Display aspect ratio : 1.378
Frame rate mode : Constant
Frame rate : 23.976 fps
Color space : YUV
Chroma subsampling : 4:2:0
Bit depth : 8 bits
Scan type : Progressive
Bits/(Pixel*Frame) : 0.140
Stream size : 176 MiB (82%)
Title : Пес Барбос и необычный кросс
Writing library : x264 core 130 r2273 b3065e6
Encoding settings : cabac=1 / ref=8 / deblock=1:0:0 / analyse=0x3:0x133 / me=umh / subme=9 / psy=1 / psy_rd=1.00:0.00 / mixed_ref=1 / me_range=32 / chroma_me=1 / trellis=2 / 8x8dct=1 / cqm=0 / deadzone=21,11 / fast_pskip=0 / chroma_qp_offset=-2 / threads=6 / lookahead_threads=1 / sliced_threads=0 / nr=0 / decimate=1 / interlaced=0 / bluray_compat=0 / constrained_intra=0 / bframes=3 / b_pyramid=2 / b_adapt=2 / b_bias=0 / direct=3 / weightb=1 / open_gop=0 / weightp=2 / keyint=250 / keyint_min=25 / scenecut=40 / intra_refresh=0 / rc_lookahead=60 / rc=2pass / mbtree=1 / bitrate=2400 / ratetol=1.0 / qcomp=0.60 / qpmin=10 / qpmax=51 / qpstep=4 / cplxblur=20.0 / qblur=0.5 / ip_ratio=1.40 / aq=1:1.00
Language : Russian
Default : Yes
Forced : No

Audio
ID : 2
Format : AC-3
Format/Info : Audio Coding 3
Mode extension : CM (complete main)
Format settings, Endianness : Big
Codec ID : A_AC3
Duration : 10mn 28s
Bit rate mode : Constant
Bit rate : 448 Kbps
Channel(s) : 6 channels
Channel positions : Front: L C R, Side: L R, LFE
Sampling rate : 48.0 KHz
Bit depth : 16 bits
Compression mode : Lossy
Stream size : 33.5 MiB (16%)
Title : Русский, AC3 5.1, 448 kbps
Language : Russian
Default : Yes
Forced : No
General
Unique ID : 223367635390503688895713165788913338255 (0xA80B0AB0D1D62F35879AA861B5C0078F)
Complete name : F:\Downloads\Пес Барбос и необычный кросс, Самогонщики, «Сто грамм» для храбрости\Самогонщики.mkv
Format : Matroska
Format version : Version 4 / Version 2
File size : 387 MiB
Duration : 18mn 58s
Overall bit rate : 2 849 Kbps
Encoded date : UTC 2014-05-05 13:30:34
Writing application : mkvmerge v6.4.1 ('Omega Point') built on Sep 16 2013 22:05:10
Writing library : libebml v1.3.0 + libmatroska v1.4.1

Video
ID : 1
Format : AVC
Format/Info : Advanced Video Codec
Format profile :
Format settings, CABAC : Yes
Format settings, ReFrames : 8 frames
Codec ID : V_MPEG4/ISO/AVC
Duration : 18mn 58s
Bit rate : 2 400 Kbps
Width : 992 pixels
Height : 720 pixels
Display aspect ratio : 1.378
Frame rate mode : Constant
Frame rate : 23.976 fps
Color space : YUV
Chroma subsampling : 4:2:0
Bit depth : 8 bits
Scan type : Progressive
Bits/(Pixel*Frame) : 0.140
Stream size : 318 MiB (82%)
Title : Самогонщики
Writing library : x264 core 130 r2273 b3065e6
Encoding settings : cabac=1 / ref=8 / deblock=1:0:0 / analyse=0x3:0x133 / me=umh / subme=9 / psy=1 / psy_rd=1.00:0.00 / mixed_ref=1 / me_range=32 / chroma_me=1 / trellis=2 / 8x8dct=1 / cqm=0 / deadzone=21,11 / fast_pskip=0 / chroma_qp_offset=-2 / threads=6 / lookahead_threads=1 / sliced_threads=0 / nr=0 / decimate=1 / interlaced=0 / bluray_compat=0 / constrained_intra=0 / bframes=3 / b_pyramid=2 / b_adapt=2 / b_bias=0 / direct=3 / weightb=1 / open_gop=0 / weightp=2 / keyint=250 / keyint_min=25 / scenecut=40 / intra_refresh=0 / rc_lookahead=60 / rc=2pass / mbtree=1 / bitrate=2400 / ratetol=1.0 / qcomp=0.60 / qpmin=10 / qpmax=51 / qpstep=4 / cplxblur=20.0 / qblur=0.5 / ip_ratio=1.40 / aq=1:1.00
Language : Russian
Default : Yes
Forced : No

Audio
ID : 2
Format : AC-3
Format/Info : Audio Coding 3
Mode extension : CM (complete main)
Format settings, Endianness : Big
Codec ID : A_AC3
Duration : 18mn 58s
Bit rate mode : Constant
Bit rate : 448 Kbps
Channel(s) : 6 channels
Channel positions : Front: L C R, Side: L R, LFE
Sampling rate : 48.0 KHz
Bit depth : 16 bits
Compression mode : Lossy
Stream size : 60.8 MiB (16%)
Title : Русский, AC3 5.1, 448 kbps
Language : Russian
Default : Yes
Forced : No
General
Unique ID : 192284096284074029579552526127597597115 (0x90A891E41171B554B2E7E285A5DFB1BB)
Complete name : F:\Downloads\Пес Барбос и необычный кросс, Самогонщики, «Сто грамм» для храбрости\«Сто грамм» для храбрости.mkv
Format : Matroska
Format version : Version 4 / Version 2
File size : 1.47 GiB
Duration : 1h 14mn
Overall bit rate : 2 799 Kbps
Encoded date : UTC 2014-05-05 13:32:53
Writing application : mkvmerge v6.4.1 ('Omega Point') built on Sep 16 2013 22:05:10
Writing library : libebml v1.3.0 + libmatroska v1.4.1

Video
ID : 1
Format : AVC
Format/Info : Advanced Video Codec
Format profile :
Format settings, CABAC : Yes
Format settings, ReFrames : 8 frames
Codec ID : V_MPEG4/ISO/AVC
Duration : 1h 14mn
Bit rate : 2 350 Kbps
Width : 1 280 pixels
Height : 544 pixels
Display aspect ratio : 2.35:1
Frame rate mode : Constant
Frame rate : 23.976 fps
Color space : YUV
Chroma subsampling : 4:2:0
Bit depth : 8 bits
Scan type : Progressive
Bits/(Pixel*Frame) : 0.141
Stream size : 1.20 GiB (82%)
Title : «Сто грамм» для храбрости
Writing library : x264 core 130 r2273 b3065e6
Encoding settings : cabac=1 / ref=8 / deblock=1:0:0 / analyse=0x3:0x133 / me=umh / subme=9 / psy=1 / psy_rd=1.00:0.00 / mixed_ref=1 / me_range=32 / chroma_me=1 / trellis=2 / 8x8dct=1 / cqm=0 / deadzone=21,11 / fast_pskip=0 / chroma_qp_offset=-2 / threads=6 / lookahead_threads=1 / sliced_threads=0 / nr=0 / decimate=1 / interlaced=0 / bluray_compat=0 / constrained_intra=0 / bframes=3 / b_pyramid=2 / b_adapt=2 / b_bias=0 / direct=3 / weightb=1 / open_gop=0 / weightp=2 / keyint=250 / keyint_min=25 / scenecut=40 / intra_refresh=0 / rc_lookahead=60 / rc=2pass / mbtree=1 / bitrate=2350 / ratetol=1.0 / qcomp=0.60 / qpmin=10 / qpmax=51 / qpstep=4 / cplxblur=20.0 / qblur=0.5 / ip_ratio=1.40 / aq=1:1.00
Language : Russian
Default : Yes
Forced : No

Audio
ID : 2
Format : AC-3
Format/Info : Audio Coding 3
Mode extension : CM (complete main)
Format settings, Endianness : Big
Codec ID : A_AC3
Duration : 1h 14mn
Bit rate mode : Constant
Bit rate : 448 Kbps
Channel(s) : 6 channels
Channel positions : Front: L C R, Side: L R, LFE
Sampling rate : 48.0 KHz
Bit depth : 16 bits
Compression mode : Lossy
Stream size : 240 MiB (16%)
Title : Русский, AC3 5.1, 448 kbps
Language : Russian
Default : Yes
Forced : No
Скриншоты:

загрузка...
Правила, инструкции, FAQ!!!
Торрент  Добавлен [05 июл 2014, 23:34] Скачать торрент
Скачать торрент
[ Размер 11.42 КБ / Просмотров 10 ]

Статус
Проверен 
 
Размер  2.05 ГБ
Приватный: Нет (DHT включён)
.torrent скачан  0
Как залить торрент? | Как скачать Torrent? | Как смотреть и слушать онлайн?  


     Отправить личное сообщение
   
Страница 1 из 1
Показать сообщения за:  Поле сортировки  
Начать новую тему Ответить на тему

   Похожие торренты   Автор   Ответы   Просмотры   Последнее сообщение 
В этой теме нет новых непрочитанных сообщений. Скачать торрент Проверен Самогонщики / Пес Барбос и необычный кросс / «Сто грамм» для храбрости (Леонид Гайдай, Борис Бушмелёв, Анатолий Маркелов, Георгий Щукин) [1961, 1976, СССР, Комедия, Blu-ray disc 1080p] + Original Rus

в форуме Наше кино (HD Video), Размер: 22.85 ГБ, Здоровье: 100%

Anonymous

0
44|15

80
0

12 апр 2015, 15:06

Anonymous Перейти к последнему сообщению

В этой теме нет новых непрочитанных сообщений. Скачать торрент Проверен 101 далматинец / One Hundred and One Dalmatians (1961) BDRip 720p

в форуме Зарубежные мультфильмы, Размер: 1.73 ГБ, Здоровье: 100%

Anonymous

0
38|4

61
564

08 авг 2014, 22:36

Anonymous Перейти к последнему сообщению

В этой теме нет новых непрочитанных сообщений. Скачать торрент Проверен 21 грамм / 21 Grams (2003) BDRip 1080p

в форуме 720p | 1080p, Размер: 11.54 ГБ, Здоровье: 100%

Anonymous

0
57|28

44
417

29 ноя 2014, 00:59

Anonymous Перейти к последнему сообщению

В этой теме нет новых непрочитанных сообщений. Скачать торрент Проверен Полосатый рейс (Владимир Фетин) [1961, СССР, комедия, BDRip 720p] + Sub Rus, Eng

в форуме Наше кино (HD Video), Размер: 6.2 ГБ, Здоровье: 100%

Anonymous

0
27|9

26
0

12 апр 2015, 15:06

Anonymous Перейти к последнему сообщению

В этой теме нет новых непрочитанных сообщений. Скачать торрент Проверен Котёнок по имени Гав (1976-1982) BDRip 720p

в форуме Отечественные мультфильмы (HD Video), Размер: 1.23 ГБ, Здоровье: 100%

Anonymous

0
116|7

172
743

14 июл 2014, 23:28

Anonymous Перейти к последнему сообщению



Сейчас этот форум просматривают: нет зарегистрированных пользователей и гости: 3


Вы не можете начинать темы
Вы не можете отвечать на сообщения
Вы не можете редактировать свои сообщения
Вы не можете удалять свои сообщения
Вы не можете добавлять вложения

Перейти:  

!ВНИМАНИЕ!
 Ресурс не предоставляет электронные версии произведений, а занимается лишь коллекционированием и каталогизацией ссылок, присылаемых и публикуемых на форуме нашими читателями. Если вы являетесь правообладателем какого-либо представленного материала и не желаете чтобы ссылка на него находилась в нашем каталоге, свяжитесь с нами и мы незамедлительно удалим её. Файлы для обмена на трекере предоставлены пользователями сайта, и администрация не несёт ответственности за их содержание. Просьба не заливать файлы, защищенные авторскими правами, а также файлы нелегального содержания!