На всех торрентах на трекере установлена скидка на скачивание в размере 100 процентов(а).
 Возможность скачивания торрента НЕ зависит от ограничений при низком ратио, низком аплоаде, требуемом ратио или требуемом аплоаде.


Начать новую тему Ответить на тему
Статистика раздачи
Размер: 2.49 ГБ | Добавлен: 04 июл 2014, 23:04 | Скачали: 0
Сидеров: 23  [0 байт/сек]    Личеров: 1  [0 байт/сек]
Пред. тема | След. тема 

Автор
Сообщение

СообщениеДобавлено: 04 июл 2014, 23:04 

Увидимся завтра / Ci vediamo domani (2013) HDTVRip

Год выпуска: 2013
Производство: Италия, Moviemax
Жанр: Комедия

Режиссер: Андреа Дзаккарьелло
Актеры: Энрико Бриньяно, Бёрт Янг, Франческа Инауди, Рикки Тоньяцци, Джулия Салерно, Люка Авальяно

Описание фильма:
Молодой авантюрист по имени Джейкоб отправляется на поиски древнего артефакта. Его девушка Сюзанна категорически против этого, ведь у них на подходе их свадьба. Джейкоб обещает вернуться за неделю до этого знаменательного события. От Джейкоба нет вестей уже больше месяца, свадьба уже на носу, а предприимчивая невеста решает отправиться на поиски своего суженого. Она собирает команду отважных искателей приключений и пускается по следам своего жениха ...

Перевод: Профессиональный двухголосый
Субтитры: Отсутствуют



Продолжительность: 01:43:18
Качество видео: HDTVRip (AVC)

Видеокодек: MPEG-4 AVC
Битрейт видео: ~3000 Кбит/с
Размер кадра: 1280x544
Аудиокодек: AC3 2 ch
Битрейт аудио: 448 Кбит/с

Общее
Уникальный идентификатор : 249601818518490735420887924310680400195 (0xBBC78FC8055AD02C9CDC95EBACF9F143)
Полное имя : C:\NNM\Увидимся завтра\Uvidimsya zavtra 2013 HDTVRip 720p-LQ.mkv
Формат : Matroska
Версия формата : Version 2
Размер файла : 2,49 Гбайт
Продолжительность : 1 ч. 43 м.
Общий поток : 3448 Кбит/сек
Программа кодирования : mkvmerge v5.4.0 ('Piper') built on Mar 10 2012 13:34:39
Библиотека кодирования : libebml v1.2.3 + libmatroska v1.3.0

Видео
Идентификатор : 1
Формат : AVC
Формат/Информация : Advanced Video Codec
Профиль формата :
Параметр CABAC формата : Да
Параметр ReFrames формата : 10 кадров
Идентификатор кодека : V_MPEG4/ISO/AVC
Продолжительность : 1 ч. 43 м.
Битрейт : 3000 Кбит/сек
Ширина : 1280 пикселей
Высота : 544 пикселя
Соотношение сторон : 2,35:1
Частота кадров : 25,000 кадров/сек
Цветовое пространство : YUV
Субдискретизация насыщенности : 4:2:0
Битовая глубина : 8 бит
Тип развёртки : Прогрессивная
Бит/(Пиксели*Кадры) : 0.172
Размер потока : 2,12 Гбайт (85%)
Библиотека кодирования : x264 core 125 r2208 d9d2288
Настройки программы : cabac=1 / ref=10 / deblock=1:-3:-2 / analyse=0x3:0x133 / me=umh / subme=10 / psy=1 / psy_rd=1.00:0.20 / mixed_ref=1 / me_range=48 / chroma_me=1 / trellis=2 / 8x8dct=1 / cqm=0 / deadzone=21,11 / fast_pskip=0 / chroma_qp_offset=-3 / threads=6 / lookahead_threads=1 / sliced_threads=0 / nr=0 / decimate=0 / interlaced=0 / bluray_compat=0 / constrained_intra=0 / bframes=8 / b_pyramid=2 / b_adapt=2 / b_bias=0 / direct=3 / weightb=1 / open_gop=0 / weightp=2 / keyint=250 / keyint_min=25 / scenecut=40 / intra_refresh=0 / rc=2pass / mbtree=0 / bitrate=3000 / ratetol=1.0 / qcomp=0.60 / qpmin=0 / qpmax=69 / qpstep=4 / cplxblur=20.0 / qblur=0.5 / ip_ratio=1.40 / pb_ratio=1.30 / aq=1:1.00
Default : Да
Forced : Нет

Аудио
Идентификатор : 2
Формат : AC-3
Формат/Информация : Audio Coding 3
Расширение режима : CM (complete main)
Идентификатор кодека : A_AC3
Продолжительность : 1 ч. 43 м.
Вид битрейта : Постоянный
Битрейт : 448 Кбит/сек
Каналы : 2 канала
Расположение каналов : Front: L R
Частота : 48,0 КГц
Битовая глубина : 16 бит
Метод сжатия : С потерями
Размер потока : 331 Мбайт (13%)
Язык : Russian
Default : Да
Forced : Нет
Скриншоты:
загрузка...
Правила, инструкции, FAQ!!!
Торрент  Добавлен [04 июл 2014, 23:04] Скачать торрент
Скачать торрент
[ Размер 13.18 КБ / Просмотров 18 ]

Статус
Проверен 
 
Размер  2.49 ГБ
Приватный: Нет (DHT включён)
.torrent скачан  0
Как залить торрент? | Как скачать Torrent? | Как смотреть и слушать онлайн?  


     Отправить личное сообщение
   
Страница 1 из 1
Показать сообщения за:  Поле сортировки  
Начать новую тему Ответить на тему

   Похожие торренты   Автор   Ответы   Просмотры   Последнее сообщение 
В этой теме нет новых непрочитанных сообщений. Скачать торрент Увидимся завтра / Ci vediamo domani (2013) DVDRip | НТВ+

в форуме Детское, Семейное кино, Размер: 1.46 ГБ, Здоровье: 100%

Anonymous

0
4|2

47
7

12 янв 2014, 02:17

Anonymous Перейти к последнему сообщению

В этой теме нет новых непрочитанных сообщений. Скачать торрент Проверен (Pop) Al Bano & Romina Power - Domani, Domani (Maxi-Single) - 1993, FLAC (image+.cue), lossless

в форуме Зарубежная музыка, Размер: 97.82 МБ, Здоровье: 0%

Anonymous

0
0|0

3
0

12 авг 2016, 18:51

Anonymous Перейти к последнему сообщению

В этой теме нет новых непрочитанных сообщений. Скачать торрент Проверен Goo Goo Dolls - Rebel Beat (Live @ The Tonight Show with Jay Leno 01.04.2013) (NBC 720p) [2013, Alternative, Rock, Post-Grunge, HDTVRip 720p]

в форуме Концерты (HD-Video), Размер: 227.34 МБ, Здоровье: 0%

Anonymous

0
0|0

0
0

23 окт 2016, 11:12

Anonymous Перейти к последнему сообщению

В этой теме нет новых непрочитанных сообщений. Скачать торрент Проверен МакSим - Полная дискография и видеография (2006-2015) FLAC, MP3, HDTVRip, HDTVRip 720p, HDTVRip 1080p

в форуме Дискографии (Отечественные), Размер: 24.2 ГБ, Здоровье: 100%

Гость

0
270|140

291
22

20 дек 2015, 12:22

Гость Перейти к последнему сообщению

В этой теме нет новых непрочитанных сообщений. Скачать торрент Проверен (Rock Progressivo Italiano) La Maschera Di Cera - Le porte del domani - 2013, FLAC (image+.cue), lossless

в форуме Progressive & Art-Rock, Размер: 382.83 МБ, Здоровье: 0%

Anonymous

0
0|0

5
0

30 авг 2016, 19:45

Anonymous Перейти к последнему сообщению



Сейчас этот форум просматривают: нет зарегистрированных пользователей и гости: 5


Вы не можете начинать темы
Вы не можете отвечать на сообщения
Вы не можете редактировать свои сообщения
Вы не можете удалять свои сообщения
Вы не можете добавлять вложения

Перейти:  

!ВНИМАНИЕ!
 Ресурс не предоставляет электронные версии произведений, а занимается лишь коллекционированием и каталогизацией ссылок, присылаемых и публикуемых на форуме нашими читателями. Если вы являетесь правообладателем какого-либо представленного материала и не желаете чтобы ссылка на него находилась в нашем каталоге, свяжитесь с нами и мы незамедлительно удалим её. Файлы для обмена на трекере предоставлены пользователями сайта, и администрация не несёт ответственности за их содержание. Просьба не заливать файлы, защищенные авторскими правами, а также файлы нелегального содержания!
cron