На всех торрентах на трекере установлена скидка на скачивание в размере 100 процентов(а).
 Возможность скачивания торрента НЕ зависит от ограничений при низком ратио, низком аплоаде, требуемом ратио или требуемом аплоаде.


Начать новую тему Ответить на тему
Статистика раздачи
Размер: 8.07 ГБ | Добавлен: 04 июл 2014, 14:36 | Скачали: 254
Сидеров: 32  [0 байт/сек]    Личеров: 0  [0 байт/сек]
Пред. тема | След. тема 

Автор
Сообщение

СообщениеДобавлено: 04 июл 2014, 14:36 

Название: Враг
Оригинальное название: Enemy
Год выпуска: 2013
Жанр: Триллер, детектив
Выпущено: Канада, Испания, Mecanismo Films, micro_scope media, Rhombus Media, Roxbury Pictures
Режиссер: Дени Вильнёв

В ролях: Джейк Джилленхол, Мелани Лоран, Сара Гадон, Изабелла Росселлини, Джошуа Пиис, Тим Пост, Кедар Браун, Дэррил Динн, Миша Хайстэд, Меган Манн

О фильме: Чтобы хоть как-то развеять свою депрессию, разведенный учитель истории Тертулиано Максимо Афонсо берет в прокате видеокассету с комедией «Упорный охотник подстрелит дичь». Фильм никак не впечатляет Тертулиано, и он ложится спать. Ночью его будят звуки из гостиной — оказывается, он забыл выключить пленку и видеомагнитофон заново проигрывает фильм. И тут Тертулиано обнаруживает, что исполнитель одной из эпизодических ролей выглядит в точности так, как он сам пять лет назад. Герой решает во что бы то ни стало найти своего двойника. Поиски оборачиваются настоящим наваждением, путешествием в самое сердце метафизической тьмы…




Качество: BDRip (1080p)
Видео: MPEG-4 AVC, 4755 Кбит/с, 1916x800, 23.976 кадр/с
Аудио: Русский (AC3, 6 ch, 640 Кбит/с), (DTS, 6 ch, 1509 Кбит/с), английский (DTS, 6 ch, 1509 Кбит/с)

Продолжительность: 01:30:52
Перевод: Авторский одноголосый закадровый
Субтитры: Русские, английские
Исходник - Enemy.2013.1080p.BluRay.AVC.DTS-HDMA.5.1.Remux-BONZO
Сохранены оригинальные чаптеры как на Blu-Ray.
-------------------------------------------------------------
Аудио1: Русский (AC3, 6 ch, 640Кбит/с) - Ю.Немахов
Аудио2: Русский (AC3, 6 ch, 640Кбит/с) - Д.Есарев
Аудио3: Русский (AC3, 6 ch, 640Кбит/с) - А.Матвеев
Аудио4: Русский (DTS, 6 ch, 1509 Кбит/с) - Ю.Немахов
Аудио5: Русский (DTS, 6 ch, 1509 Кбит/с) - Д.Есарев
Аудио6: Русский (DTS, 6 ch, 1509 Кбит/с) - А.Матвеев
Аудио7: Английский (DTS, 6 ch, 1509 Кбит/с)

• Перевод Ю.Немахова выполнен спонсорами ресурса e180 и участниками сервиса ОЗВУЧИВАНИЕ: tambov68 и sybir . Работа со звуком: Bloodymetall
• Перевод Д.Есарева выполнен спонсором mihey10. Работа со звуком: mihaildns
• Перевод А.Матвеевa (Doctor Joker) выполнен спонсором: будулайроманов. Работа со звуком: Переводман
Всем ОГРОМНОЕ СПАСИБО!

x264 [info]: frame I:721 Avg QP:14.79 size:166828
x264 [info]: frame P:25072 Avg QP:18.01 size: 50985
x264 [info]: frame B:104936 Avg QP:19.55 size: 17559
-----------------------------------------------------
Общее
Уникальный идентификатор : 192920938997460733305814220571970921951 (0x912338A92D90DAA98D1EC9540B6865DF)
Полное имя : D:ЗагрузкиEnemy.2013.x264.BDRip.(1080p).ExKinoRay.mkv
Формат : Matroska
Версия формата : Version 2
Размер файла : 8,07 Гбайт
Продолжительность : 1 ч. 30 м.
Общий поток : 12,7 Мбит/сек
Название фильма : Враг.2013.Rip by: ollan
Дата кодирования : UTC 2014-07-03 20:31:58
Программа кодирования : mkvmerge v5.6.0 ('Kenya Kane') built on May 27 2012 16:44:04
Библиотека кодирования : libebml v1.2.3 + libmatroska v1.3.0

Видео
Идентификатор : 1
Формат : AVC
Формат/Информация : Advanced Video Codec
Профиль формата : High@L4.1
Параметр CABAC формата : Да
Параметр ReFrames формата : 5 кадров
Идентификатор кодека : V_MPEG4/ISO/AVC
Продолжительность : 1 ч. 30 м.
Битрейт : 4508 Кбит/сек
Номинальный битрейт : 4755 Кбит/сек
Ширина : 1916 пикселей
Высота : 800 пикселей
Соотношение сторон : 2,40:1
Режим частоты кадров : Постоянный
Частота кадров : 23,976 кадра/сек
Цветовое пространство : YUV
Субдискретизация насыщенности : 4:2:0
Битовая глубина : 8 бит
Тип развёртки : Прогрессивная
Бит/(Пиксели*Кадры) : 0.123
Размер потока : 2,86 Гбайт (35%)
Библиотека кодирования : x264 core 125 r2200 999b753
Настройки программы : cabac=1 / ref=5 / deblock=1:-3:-3 / analyse=0x3:0x133 / me=umh / subme=11 / psy=1 / psy_rd=1.00:0.10 / mixed_ref=1 / me_range=32 / chroma_me=1 / trellis=2 / 8x8dct=1 / cqm=0 / deadzone=21,11 / fast_pskip=0 / chroma_qp_offset=-3 / threads=12 / lookahead_threads=2 / sliced_threads=0 / nr=0 / decimate=0 / interlaced=0 / bluray_compat=0 / constrained_intra=0 / bframes=9 / b_pyramid=2 / b_adapt=2 / b_bias=0 / direct=3 / weightb=1 / open_gop=0 / weightp=2 / keyint=240 / keyint_min=23 / scenecut=40 / intra_refresh=0 / rc_lookahead=40 / rc=2pass / mbtree=1 / bitrate=4755 / ratetol=1.0 / qcomp=0.60 / qpmin=0 / qpmax=69 / qpstep=4 / cplxblur=20.0 / qblur=0.5 / ip_ratio=1.40 / aq=1:1.00
Язык : English
Default : Да
Forced : Нет

Аудио #1
Идентификатор : 2
Формат : AC-3
Формат/Информация : Audio Coding 3
Расширение режима : CM (complete main)
Параметр Endianness формата : Big
Идентификатор кодека : A_AC3
Продолжительность : 1 ч. 30 м.
Вид битрейта : Постоянный
Битрейт : 640 Кбит/сек
Каналы : 6 каналов
Расположение каналов : Front: L C R, Side: L R, LFE
Частота : 48,0 КГц
Битовая глубина : 16 бит
Метод сжатия : С потерями
Размер потока : 416 Мбайт (5%)
Заголовок : Ю.Немахов
Язык : Russian
Default : Да
Forced : Нет

Аудио #2
Идентификатор : 3
Формат : AC-3
Формат/Информация : Audio Coding 3
Расширение режима : CM (complete main)
Параметр Endianness формата : Big
Идентификатор кодека : A_AC3
Продолжительность : 1 ч. 30 м.
Вид битрейта : Постоянный
Битрейт : 640 Кбит/сек
Каналы : 6 каналов
Расположение каналов : Front: L C R, Side: L R, LFE
Частота : 48,0 КГц
Битовая глубина : 16 бит
Метод сжатия : С потерями
Размер потока : 416 Мбайт (5%)
Заголовок : Д.Есарев
Язык : Russian
Default : Нет
Forced : Нет

Аудио #3
Идентификатор : 4
Формат : AC-3
Формат/Информация : Audio Coding 3
Расширение режима : CM (complete main)
Параметр Endianness формата : Big
Идентификатор кодека : A_AC3
Продолжительность : 1 ч. 30 м.
Вид битрейта : Постоянный
Битрейт : 640 Кбит/сек
Каналы : 6 каналов
Расположение каналов : Front: L C R, Side: L R, LFE
Частота : 48,0 КГц
Битовая глубина : 16 бит
Метод сжатия : С потерями
Размер потока : 416 Мбайт (5%)
Заголовок : А.Матвеев
Язык : Russian
Default : Нет
Forced : Нет

Аудио #4
Идентификатор : 5
Формат : DTS
Формат/Информация : Digital Theater Systems
Режим : 16
Параметр Endianness формата : Big
Идентификатор кодека : A_DTS
Продолжительность : 1 ч. 30 м.
Вид битрейта : Постоянный
Битрейт : 1509 Кбит/сек
Каналы : 6 каналов
Расположение каналов : Front: L C R, Side: L R, LFE
Частота : 48,0 КГц
Битовая глубина : 24 бит
Метод сжатия : С потерями
Размер потока : 981 Мбайт (12%)
Заголовок : Ю.Немахов
Язык : Russian
Default : Нет
Forced : Нет

Аудио #5
Идентификатор : 6
Формат : DTS
Формат/Информация : Digital Theater Systems
Режим : 16
Параметр Endianness формата : Big
Идентификатор кодека : A_DTS
Продолжительность : 1 ч. 30 м.
Вид битрейта : Постоянный
Битрейт : 1509 Кбит/сек
Каналы : 6 каналов
Расположение каналов : Front: L C R, Side: L R, LFE
Частота : 48,0 КГц
Битовая глубина : 24 бит
Метод сжатия : С потерями
Размер потока : 981 Мбайт (12%)
Заголовок : Д.Есарев
Язык : Russian
Default : Нет
Forced : Нет

Аудио #6
Идентификатор : 7
Формат : DTS
Формат/Информация : Digital Theater Systems
Режим : 16
Параметр Endianness формата : Big
Идентификатор кодека : A_DTS
Продолжительность : 1 ч. 30 м.
Вид битрейта : Постоянный
Битрейт : 1509 Кбит/сек
Каналы : 6 каналов
Расположение каналов : Front: L C R, Side: L R, LFE
Частота : 48,0 КГц
Битовая глубина : 24 бит
Метод сжатия : С потерями
Размер потока : 981 Мбайт (12%)
Заголовок : А.Матвеев
Язык : Russian
Default : Нет
Forced : Нет

Аудио #7
Идентификатор : 8
Формат : DTS
Формат/Информация : Digital Theater Systems
Режим : 16
Параметр Endianness формата : Big
Идентификатор кодека : A_DTS
Продолжительность : 1 ч. 30 м.
Вид битрейта : Постоянный
Битрейт : 1509 Кбит/сек
Каналы : 6 каналов
Расположение каналов : Front: L C R, Side: L R, LFE
Частота : 48,0 КГц
Битовая глубина : 24 бит
Метод сжатия : С потерями
Размер потока : 981 Мбайт (12%)
Язык : English
Default : Нет
Forced : Нет

Текст #1
Идентификатор : 9
Формат : UTF-8
Идентификатор кодека : S_TEXT/UTF8
Идентификатор кодека/Информация : UTF-8 Plain Text
Язык : Russian
Default : Нет
Forced : Нет

Текст #2
Идентификатор : 10
Формат : UTF-8
Идентификатор кодека : S_TEXT/UTF8
Идентификатор кодека/Информация : UTF-8 Plain Text
Язык : English
Default : Нет
Forced : Нет

Меню
00:00:00.000 : en:Chapter 01
00:04:57.588 : en:Chapter 02
00:09:20.101 : en:Chapter 03
00:15:45.778 : en:Chapter 04
00:26:24.708 : en:Chapter 05
00:30:58.565 : en:Chapter 06
00:35:43.599 : en:Chapter 07
00:42:11.779 : en:Chapter 08
00:48:55.682 : en:Chapter 09
00:52:51.042 : en:Chapter 10
00:55:15.979 : en:Chapter 11
00:59:19.639 : en:Chapter 12
01:06:33.072 : en:Chapter 13
01:10:08.579 : en:Chapter 14
01:15:10.881 : en:Chapter 15
01:23:17.325 : en:Chapter 16






Релиз от: Rip by:
загрузка...
Правила, инструкции, FAQ!!!
Торрент  Добавлен [04 июл 2014, 14:36] Скачать торрент
Скачать торрент
[ Размер 20.83 КБ / Просмотров 13 ]

Статус
Проверен 
 
Размер  8.07 ГБ
Приватный: Нет (DHT включён)
.torrent скачан  254
Как залить торрент? | Как скачать Torrent? | Как смотреть и слушать онлайн?  


     Отправить личное сообщение
   
Страница 1 из 1
Показать сообщения за:  Поле сортировки  
Начать новую тему Ответить на тему

   Похожие торренты   Автор   Ответы   Просмотры   Последнее сообщение 
В этой теме нет новых непрочитанных сообщений. Скачать торрент Проверен Враг государства / Enemy of the State (1998) BDRip 1080p

в форуме 720p | 1080p, Размер: 7.76 ГБ, Здоровье: 100%

Anonymous

0
27|3

34
161

28 ноя 2014, 16:29

Anonymous Перейти к последнему сообщению

В этой теме нет новых непрочитанных сообщений. Скачать торрент Проверен Враг / Enemy (2013) BDRip 720p

в форуме 720p | 1080p, Размер: 7.34 ГБ, Здоровье: 100%

Anonymous

0
12|0

94
116

04 июл 2014, 14:31

Anonymous Перейти к последнему сообщению

В этой теме нет новых непрочитанных сообщений. Скачать торрент Проверен Враг / Enemy (2013) BDRip 720p | L2, | L1

в форуме 720p | 1080p, Размер: 4.73 ГБ, Здоровье: 100%

Anonymous

0
39|0

134
192

12 июн 2014, 13:49

Anonymous Перейти к последнему сообщению

В этой теме нет новых непрочитанных сообщений. Скачать торрент Враг у ворот / Enemy at the Gates (2001) BDRip

в форуме Военные, Размер: 1.46 ГБ, Здоровье: 100%

Anonymous

0
76|2

114
566

21 дек 2013, 08:34

Anonymous Перейти к последнему сообщению

В этой теме нет новых непрочитанных сообщений. Скачать торрент Проверен Враг у ворот / Enemy at the Gates (2001) BDRip [720p]

в форуме 720p | 1080p, Размер: 9.57 ГБ, Здоровье: 100%

Гость

0
69|9

88
1

28 дек 2014, 18:18

Гость Перейти к последнему сообщению



Сейчас этот форум просматривают: нет зарегистрированных пользователей и гости: 2


Вы не можете начинать темы
Вы не можете отвечать на сообщения
Вы не можете редактировать свои сообщения
Вы не можете удалять свои сообщения
Вы не можете добавлять вложения

Перейти:  

!ВНИМАНИЕ!
 Ресурс не предоставляет электронные версии произведений, а занимается лишь коллекционированием и каталогизацией ссылок, присылаемых и публикуемых на форуме нашими читателями. Если вы являетесь правообладателем какого-либо представленного материала и не желаете чтобы ссылка на него находилась в нашем каталоге, свяжитесь с нами и мы незамедлительно удалим её. Файлы для обмена на трекере предоставлены пользователями сайта, и администрация не несёт ответственности за их содержание. Просьба не заливать файлы, защищенные авторскими правами, а также файлы нелегального содержания!