На всех торрентах на трекере установлена скидка на скачивание в размере 100 процентов(а).
 Возможность скачивания торрента НЕ зависит от ограничений при низком ратио, низком аплоаде, требуемом ратио или требуемом аплоаде.


Начать новую тему Ответить на тему
Статистика раздачи
Размер: 2.49 ГБ | Добавлен: 01 июл 2014, 21:40 | Скачали: 307
Сидеров: 46  [0 байт/сек]    Личеров: 0  [0 байт/сек]
Пред. тема | След. тема 

Автор
Сообщение

СообщениеДобавлено: 01 июл 2014, 21:40 

Название: Крепыш
Оригинальное название: Teddy Bear / 10 timer til paradis
Год выхода: 2012
Жанр: Драма
Режиссер: Мадс Маттисен

В ролях: Ким Колд, Дэвид Уинтерс, Эльсебет Стэнтофт,Ламайпорн Хоюгард, Миа Мария Бэк, Чанича Шиндеяничакул, Джон Уинтерс, Пер Отто Берсанг Расмуссен, Сонгпорн На Бэнгчанг, Барбара Затлер

О фильме:
Деннис Питерсен — изрезанный глубокими морщинами и щедро покрытый татуировками человек-шкаф, человек-Шрек, похожий на зелёного огра не только гигантским телом и каменной башкой, но и детской наивностью. Профессиональный бодибилдер, подрабатывающий охранником, живёт с сухонькой и седенькой мамой, ведёт себя тише воды-ниже травы и безнадёжно мечтает о постоянной девушке. И вот однажды, последовав примеру друга семьи и закрыв глаза на пассивно-агрессивное поведение мамы, Деннис отправляется в Таиланд, где доступных девушек не счесть…



Страна: Дания
Студия: Beofilm, Minerva Film, SF Film Production
Продолжительность: 01:32:03
Перевод: Любительский одноголосый (zamez)


Кодек: MPEG-4 AVC
Качество: HDTVRip 720p
Видео: 3300 Кбит/с, 1280x720, 25.000 кадр/с
Звук:
Аудио #1: Русский (АС3, 2 ch, 192 Кбит/с) / Любительский одноголосый (zamez)
Аудио #2: Датский (AC3, 6 ch, 384 Кбит/с)
Субтитры: Русские (hardsub)

Семпл


Общее
Полное имя : Krepysh.2012.x264.HDTVRip(720p).MediaClub.mkv
Формат : Matroska
Версия формата : Version 2
Размер файла : 2,49 Гбайт
Продолжительность : 1 ч. 32 м.
Общий поток : 3875 Кбит/сек
Дата кодирования : UTC 2014-04-16 17:29:00
Программа кодирования : mkvmerge v5.4.0 ('Piper') built on Mar 10 2012 13:34:39
Библиотека кодирования : libebml v1.2.3 + libmatroska v1.3.0

Видео
Идентификатор : 1
Формат : AVC
Формат/Информация : Advanced Video Codec
Профиль формата : High@L4.1
Параметр CABAC формата : Да
Параметр ReFrames формата : 9 кадров
Идентификатор кодека : V_MPEG4/ISO/AVC
Продолжительность : 1 ч. 32 м.
Битрейт : 3300 Кбит/сек
Ширина : 1280 пикселей
Высота : 720 пикселей
Соотношение сторон : 16:9
Режим частоты кадров : Постоянный
Частота кадров : 25,000 кадров/сек
Цветовое пространство : YUV
Субдискретизация насыщенности : 4:2:0
Битовая глубина : 8 бит
Тип развёртки : Прогрессивная
Бит/(Пиксели*Кадры) : 0.143
Размер потока : 2,07 Гбайт (83%)
Библиотека кодирования : x264 core 125 r2208 d9d2288
Настройки программы : cabac=1 / ref=9 / deblock=1:-2:-2 / analyse=0x3:0x133 / me=umh / subme=10 / psy=1 / psy_rd=1.00:0.15 / mixed_ref=1 / me_range=32 / chroma_me=1 / trellis=2 / 8x8dct=1 / cqm=0 / deadzone=21,11 / fast_pskip=0 / chroma_qp_offset=-3 / threads=6 / lookahead_threads=1 / sliced_threads=0 / nr=0 / decimate=0 / interlaced=0 / bluray_compat=0 / constrained_intra=0 / bframes=8 / b_pyramid=2 / b_adapt=2 / b_bias=0 / direct=3 / weightb=1 / open_gop=0 / weightp=2 / keyint=250 / keyint_min=25 / scenecut=40 / intra_refresh=0 / rc=2pass / mbtree=0 / bitrate=3300 / ratetol=1.0 / qcomp=0.60 / qpmin=0 / qpmax=69 / qpstep=4 / cplxblur=20.0 / qblur=0.5 / ip_ratio=1.40 / pb_ratio=1.30 / aq=1:0.80
Язык : English
Default : Да
Forced : Нет

Аудио #1
Идентификатор : 2
Формат : AC-3
Формат/Информация : Audio Coding 3
Расширение режима : CM (complete main)
Параметр Endianness формата : Big
Идентификатор кодека : A_AC3
Продолжительность : 1 ч. 32 м.
Вид битрейта : Постоянный
Битрейт : 192 Кбит/сек
Каналы : 2 канала
Расположение каналов : Front: L R
Частота : 48,0 КГц
Битовая глубина : 16 бит
Метод сжатия : С потерями
Задержка видео : 8 мс.
Размер потока : 126 Мбайт (5%)
Заголовок : Любительский одноголосый (zamez)
Язык : Russian
Default : Да
Forced : Нет

Аудио #2
Идентификатор : 3
Формат : AC-3
Формат/Информация : Audio Coding 3
Расширение режима : CM (complete main)
Параметр Endianness формата : Big
Идентификатор кодека : A_AC3
Продолжительность : 1 ч. 32 м.
Вид битрейта : Постоянный
Битрейт : 384 Кбит/сек
Каналы : 6 каналов
Расположение каналов : Front: L C R, Side: L R, LFE
Частота : 48,0 КГц
Битовая глубина : 16 бит
Метод сжатия : С потерями
Размер потока : 253 Мбайт (10%)
Язык : Danish
Default : Нет
Forced : Нет

Санденс, 2012 год
Номинации (1):

Гран-при в категории «Драматический фильм» (Программа «Мировое кино»)
Европейская киноакадемия, 2012 год
Номинации (1):

Европейское открытие года (Мадс Маттисен)


Релиз от:
загрузка...
Правила, инструкции, FAQ!!!
Торрент  Добавлен [01 июл 2014, 21:40] Скачать торрент
Скачать торрент
[ Размер 13.04 КБ / Просмотров 8 ]

Статус
Проверен 
 
Размер  2.49 ГБ
Приватный: Нет (DHT включён)
.torrent скачан  307
Как залить торрент? | Как скачать Torrent? | Как смотреть и слушать онлайн?  


     Отправить личное сообщение
   
Страница 1 из 1
Показать сообщения за:  Поле сортировки  
Начать новую тему Ответить на тему

   Похожие торренты   Автор   Ответы   Просмотры   Последнее сообщение 
В этой теме нет новых непрочитанных сообщений. Скачать торрент Проверен Крепыш / Teddy Bear / 10 timer til paradis (2012) HDTVRip 1080p | L1

в форуме 720p | 1080p, Размер: 3.65 ГБ, Здоровье: 100%

Anonymous

0
28|0

15
434

01 июл 2014, 21:33

Anonymous Перейти к последнему сообщению

В этой теме нет новых непрочитанных сообщений. Скачать торрент Проверен Крепыш / Teddy Bear / 10 timer til paradis (2012) DVDRip | L1

в форуме Драмы, Мелодрамы, Размер: 1.47 ГБ, Здоровье: 100%

Anonymous

0
17|3

19
299

01 июл 2014, 21:38

Anonymous Перейти к последнему сообщению

В этой теме нет новых непрочитанных сообщений. Скачать торрент Проверен (Rock) Meat Loaf - Hang Cool Teddy Bear - 2010, FLAC (image+.cue), lossless

в форуме Classic Rock & Hard Rock, Размер: 550.27 МБ, Здоровье: 0%

Anonymous

0
0|0

0
0

04 сен 2016, 23:19

Anonymous Перейти к последнему сообщению

В этой теме нет новых непрочитанных сообщений. Скачать торрент Проверен Meat Loaf - Hang Cool Teddy Bear (2010) 2CD Deluxe Edition [FLAC|Lossless]<Hard Rock>

в форуме Рок, Панк, Метал, Альтернатива, Размер: 996.78 МБ, Здоровье: 0%

Anonymous

0
0|0

50
0

21 июл 2014, 08:35

Anonymous Перейти к последнему сообщению

В этой теме нет новых непрочитанных сообщений. Скачать торрент Проверен Meat Loaf - Hang Cool Teddy Bear (2010) [MP3|192-320 kbps]<Hard Rock / Classic Rock>

в форуме Рок, Панк, Метал, Альтернатива, Размер: 104.93 МБ, Здоровье: 0%

Anonymous

0
0|0

15
0

29 июл 2014, 21:43

Anonymous Перейти к последнему сообщению



Сейчас этот форум просматривают: нет зарегистрированных пользователей и гости: 1


Вы не можете начинать темы
Вы не можете отвечать на сообщения
Вы не можете редактировать свои сообщения
Вы не можете удалять свои сообщения
Вы не можете добавлять вложения

Перейти:  

!ВНИМАНИЕ!
 Ресурс не предоставляет электронные версии произведений, а занимается лишь коллекционированием и каталогизацией ссылок, присылаемых и публикуемых на форуме нашими читателями. Если вы являетесь правообладателем какого-либо представленного материала и не желаете чтобы ссылка на него находилась в нашем каталоге, свяжитесь с нами и мы незамедлительно удалим её. Файлы для обмена на трекере предоставлены пользователями сайта, и администрация не несёт ответственности за их содержание. Просьба не заливать файлы, защищенные авторскими правами, а также файлы нелегального содержания!