На всех торрентах на трекере установлена скидка на скачивание в размере 100 процентов(а).
 Возможность скачивания торрента НЕ зависит от ограничений при низком ратио, низком аплоаде, требуемом ратио или требуемом аплоаде.


Начать новую тему Ответить на тему
Статистика раздачи
Размер: 2.38 ГБ | Добавлен: 01 июл 2014, 21:21 | Скачали: 189
Сидеров: 25  [0 байт/сек]    Личеров: 1  [0 байт/сек]
Пред. тема | След. тема 

Автор
Сообщение

СообщениеДобавлено: 01 июл 2014, 21:21 

Название: 10 шагов к успеху
Оригинальное название: 10 Items or Less
Год выхода: 2006
Жанр: Комедия, мелодрама, драма
Режиссер: Брэд Силберлинг

В ролях: Морган Фримен, Паз Вега, Джона Хилл, Александра Берарди, Бобби Каннавейл, Энн Дудек, Дженнифер Эхолс, Вивиан Насиф, Леонардо Нэм, Скотт Норрис

О фильме:
Стареющая звезда Голливуда осознает, что, поддавшись страху провала, он попросту забыл о своем творческом потенциале, раз за разом отказываясь от перспективных предложений. Надеясь изменить сложившееся положение дел, он решает присмотреть для себя интересную роль в каком-нибудь малобюджетном независимом фильме. Случайно он встречает юную задиристую латиноамериканку Скарлет, работающую кассиршей в латиноамериканском супермаркете. Вскоре знаменитость обнаруживает, что он остался без персонального водителя, который обычно сопровождал его в поездках по городу, и оказывается вынужден обратиться за помощью к девушке. Путешествие по Лос-Анджелесу в компании Скарлет превращается в череду невероятных ситуаций, случайных встреч и личных открытий, о которых никто из действующих лиц даже и предположить не мог…



Страна: США
Продолжительность: 01:17:00
Перевод: Дублирование


Формат: MKV
Качество: HDTVRip 720p
Видео: MPEG-4 AVC, 3264 Кбит/с, 1280 x 698, 25.000 кадр/с
Звук: Аудио 1: Русский (DTS, 6 ch, 768 Кбит/с)
Аудио 2: английский (AC3, 6 ch, 448 Кбит/с)
Субтитры: Русские, английские

Семпл


Общее
Уникальный идентификатор : 173827267760892775781300344355646707742 (0x82C5E9FCC46A72168683F8F0C311981E)
Полное имя : D:10.shagov.k.uspehu.2006.x264.HDTVRip.720p.mkv
Формат : Matroska
Версия формата : Version 2
Размер файла : 2,38 Гбайт
Продолжительность : 1 ч. 17 м.
Общий поток : 4412 Кбит/сек
Название фильма : 10 шагов к успеху / 10 Items or Less
Дата кодирования : UTC 2011-12-02 18:24:14
Программа кодирования : mkvmerge v3.4.0 ('Rapunzel') сборка от May 15 2010 09:38:20
Библиотека кодирования : libebml v0.8.0 + libmatroska v0.9.0

Видео
Идентификатор : 1
Формат : AVC
Формат/Информация : Advanced Video Codec
Профиль формата : High@L4.1
Параметр CABAC формата : Да
Параметр ReFrames формата : 4 кадра
Идентификатор кодека : V_MPEG4/ISO/AVC
Продолжительность : 1 ч. 17 м.
Битрейт : 3264 Кбит/сек
Ширина : 1280 пикселей
Высота : 698 пикселей
Соотношение сторон : 16:9
Частота кадров : 25,000 кадров/сек
Цветовое пространство : YUV
Субдискретизация насыщенности : 4:2:0
Битовая глубина : 8 бит
Тип развёртки : Прогрессивная
Бит/(Пиксели*Кадры) : 0.146
Размер потока : 1,69 Гбайт (71%)
Заголовок : 10 Items or Less
Библиотека кодирования : x264 core 116 r2074 2641b9e
Настройки программы : cabac=1 / ref=3 / deblock=1:0:0 / analyse=0x3:0x133 / me=umh / subme=10 / psy=1 / psy_rd=1.00:0.00 / mixed_ref=1 / me_range=48 / chroma_me=1 / trellis=2 / 8x8dct=1 / cqm=0 / deadzone=21,11 / fast_pskip=0 / chroma_qp_offset=-2 / threads=6 / sliced_threads=0 / nr=0 / decimate=1 / interlaced=0 / bluray_compat=0 / constrained_intra=0 / bframes=5 / b_pyramid=2 / b_adapt=2 / b_bias=0 / direct=3 / weightb=1 / open_gop=0 / weightp=2 / keyint=250 / keyint_min=23 / scenecut=40 / intra_refresh=0 / rc_lookahead=40 / rc=2pass / mbtree=1 / bitrate=3264 / ratetol=1.0 / qcomp=0.60 / qpmin=10 / qpmax=51 / qpstep=4 / cplxblur=20.0 / qblur=0.5 / ip_ratio=1.40 / aq=1:1.00
Язык : English
Default : Нет
Forced : Нет

Аудио #1
Идентификатор : 2
Формат : DTS
Формат/Информация : Digital Theater Systems
Идентификатор кодека : A_DTS
Продолжительность : 1 ч. 17 м.
Вид битрейта : Постоянный
Битрейт : 768 Кбит/сек
Каналы : 6 каналов
Расположение каналов : Front: L C R, Side: L R, LFE
Частота : 48,0 КГц
Битовая глубина : 24 бит
Метод сжатия : С потерями
Размер потока : 417 Мбайт (17%)
Заголовок : Русский
Язык : Russian
Default : Да
Forced : Нет

Аудио #2
Идентификатор : 3
Формат : AC-3
Формат/Информация : Audio Coding 3
Расширение режима : CM (complete main)
Идентификатор кодека : A_AC3
Продолжительность : 1 ч. 17 м.
Вид битрейта : Постоянный
Битрейт : 448 Кбит/сек
Каналы : 6 каналов
Расположение каналов : Front: L C R, Side: L R, LFE
Частота : 48,0 КГц
Битовая глубина : 16 бит
Метод сжатия : С потерями
Задержка видео : 1 с. 840 мс.
Размер потока : 248 Мбайт (10%)
Заголовок : English
Язык : English
Default : Нет
Forced : Нет

Текст #1
Идентификатор : 4
Формат : UTF-8
Идентификатор кодека : S_TEXT/UTF8
Идентификатор кодека/Информация : UTF-8 Plain Text
Язык : Russian
Default : Нет
Forced : Нет

Текст #2
Идентификатор : 5
Формат : UTF-8
Идентификатор кодека : S_TEXT/UTF8
Идентификатор кодека/Информация : UTF-8 Plain Text
Язык : English
Default : Нет
Forced : Нет
загрузка...
Правила, инструкции, FAQ!!!
Торрент  Добавлен [01 июл 2014, 21:21] Скачать торрент
Скачать торрент
[ Размер 12.52 КБ / Просмотров 9 ]

Статус
Проверен 
 
Размер  2.38 ГБ
Приватный: Нет (DHT включён)
.torrent скачан  189
Как залить торрент? | Как скачать Torrent? | Как смотреть и слушать онлайн?  


     Отправить личное сообщение
   
Страница 1 из 1
Показать сообщения за:  Поле сортировки  
Начать новую тему Ответить на тему

   Похожие торренты   Автор   Ответы   Просмотры   Последнее сообщение 
В этой теме нет новых непрочитанных сообщений. Скачать торрент 10 шагов к успеху / 10 Items or Less (Брэд Силберлинг /Brad Silberling) [2006 г., Комедия, Драма, DVDRip] Dub + Original

в форуме Комедии, Размер: 1.45 ГБ, Здоровье: 0%

Anonymous

0
0|0

87
0

19 фев 2014, 11:42

Anonymous Перейти к последнему сообщению

В этой теме нет новых непрочитанных сообщений. Скачать торрент Проверен Михаил Литвак | 7 шагов к успеху (2015) [FB2]

в форуме Популярная психология, Размер: 1.29 МБ, Здоровье: 100%

Anonymous

0
656|5

155
20

19 янв 2016, 21:08

Anonymous Перейти к последнему сообщению

В этой теме нет новых непрочитанных сообщений. Скачать торрент Проверен Огудин В.Л. - Золотые правила фэншуй. 10 простых шагов к успеху, благополучию и долголетию [2010, FB2, RUS]

в форуме Эзотерика, гадания, магия, фен-шуй, Размер: 5.09 МБ, Здоровье: 100%

Anonymous

0
32|4

9
2

28 авг 2016, 22:59

Anonymous Перейти к последнему сообщению

В этой теме нет новых непрочитанных сообщений. Скачать торрент Проверен МакSим - Полная дискография и видеография (2006-2015) FLAC, MP3, HDTVRip, HDTVRip 720p, HDTVRip 1080p

в форуме Дискографии (Отечественные), Размер: 24.2 ГБ, Здоровье: 100%

Гость

0
273|150

300
23

20 дек 2015, 12:22

Гость Перейти к последнему сообщению

В этой теме нет новых непрочитанных сообщений. Скачать торрент Проверен Блэр Ф.Р. - Тайны самогипноза. Найди путь к успеху [2006, DjVu, RUS]

в форуме Популярная психология, Размер: 4.6 МБ, Здоровье: 100%

Anonymous

0
24|7

6
1

09 сен 2016, 22:36

Anonymous Перейти к последнему сообщению



Сейчас этот форум просматривают: нет зарегистрированных пользователей и гости: 1


Вы не можете начинать темы
Вы не можете отвечать на сообщения
Вы не можете редактировать свои сообщения
Вы не можете удалять свои сообщения
Вы не можете добавлять вложения

Перейти:  

!ВНИМАНИЕ!
 Ресурс не предоставляет электронные версии произведений, а занимается лишь коллекционированием и каталогизацией ссылок, присылаемых и публикуемых на форуме нашими читателями. Если вы являетесь правообладателем какого-либо представленного материала и не желаете чтобы ссылка на него находилась в нашем каталоге, свяжитесь с нами и мы незамедлительно удалим её. Файлы для обмена на трекере предоставлены пользователями сайта, и администрация не несёт ответственности за их содержание. Просьба не заливать файлы, защищенные авторскими правами, а также файлы нелегального содержания!