На всех торрентах на трекере установлена скидка на скачивание в размере 100 процентов(а).
 Возможность скачивания торрента НЕ зависит от ограничений при низком ратио, низком аплоаде, требуемом ратио или требуемом аплоаде.


Начать новую тему Ответить на тему
Статистика раздачи
Размер: 10.73 ГБ | Добавлен: 01 фев 2013, 19:40 | Скачали: 0
Сидеров: 0  [0 байт/сек]    Личеров: 0  [0 байт/сек]
Пред. тема | След. тема 

Автор
Сообщение

СообщениеДобавлено: 01 фев 2013, 19:40 

О фильме: Лояльность Бонда своей начальнице М под угрозой со стороны ее прошлого, которое внезапно даст о себе знать. MI6 подвергается нападению, и агент 007 должен ликвидировать угрозу, несмотря на цену, которую придется заплатить.

Название: 007: Координаты «Скайфолл»
Оригинальное название: Skyfall
Год выпуска: 2012
Жанр: Боевик, триллер, криминал, приключения
Выпущено: Великобритания, США, Metro-Goldwyn-Mayer (MGM)
Режиссер: Сэм Мендес

В фильме снимались: Дэниэл Крэйг, Хавьер Бардем, Джуди Денч, Рэйф Файнс, Бен Уишоу, Наоми Харрис, Альберт Финни, Беренис Марло, Хелен МакКрори, Тония Сотиропулу, Рори Киннер, Ола Рапас, Николас Вудесон, Уильям Бакхерст, Элиз дю Ту, Йен Бонар, Гордон Милн, Питер Башам, Бен Лойд-Холмс, Вульф Блицер, Дэвид Гиллис, Джеймс Ли, Кеннет Хэзелдайн, Орион Ли, Дейв Вон, Тэнк Донг, Роджер Йуан, Лианг Янг, Еннис Чун-Ян, Чойе Бэй, Сид Мэн, Анджела Трэн, Миодраг Капор, Хув Эдвардс, Адебайо Боладжи, Элиа Ло Тауро, Амир Бутрус, Хан Бонфилс, Николас Го, Джон Ходжкинсон, Курт Эгиаван, Оливер Джонстоун, Гарри Кершоу, Берт Цезар, Пол Венаблс, Криспин Леттс








Формат: mkv
Качество: BDRip (1080p)
Видео: MPEG-4 AVC, 8320 Кбит/с, 1920x800, 23.976 кадр/с
Аудио: Русский, украинский (AC3, 6 ch, 448 Кбит/c), английский (DTS, 6 ch, 1510 Кбит/c)

Продолжительность: 02:23:10
Перевод: Дублированный (лицензия)
Субтитры: Английские


Общее
Уникальный идентификатор : 254899675677862495116094805168460434116 (0xBFC3E44E551E63768B2D9BA81BA48AC4)
Полное имя : N:�07-Koordinaty.skajfoll.2012.x264.BDRip(1080p).mkv
Формат : Matroska
Версия формата : Version 2
Размер файла : 10,7 Гбайт
Продолжительность : 2 ч. 23 м.
Общий поток : 10,7 Мбит/сек
Название фильма : --SCHUMAHER--
Дата кодирования : UTC 2013-02-01 14:53:38
Программа кодирования : mkvmerge v5.8.0 ('No Sleep / Pillow') built on Sep 2 2012 15:37:04
Библиотека кодирования : libebml v1.2.3 + libmatroska v1.3.0

Видео
Идентификатор : 1
Формат : AVC
Формат/Информация : Advanced Video Codec
Профиль формата : High@L4.1
Параметр CABAC формата : Да
Параметр ReFrames формата : 5 кадров
Идентификатор кодека : V_MPEG4/ISO/AVC
Продолжительность : 2 ч. 23 м.
Битрейт : 8320 Кбит/сек
Ширина : 1920 пикселей
Высота : 800 пикселей
Соотношение сторон : 2,40:1
Режим частоты кадров : Постоянный
Частота кадров : 23,976 кадра/сек
Цветовое пространство : YUV
Субдискретизация насыщенности : 4:2:0
Битовая глубина : 8 бит
Тип развёртки : Прогрессивная
Бит/(Пиксели*Кадры) : 0.226
Размер потока : 8,11 Гбайт (76%)
Библиотека кодирования : x264 core 129 r2245kMod bc13772
Настройки программы : cabac=1 / ref=5 / deblock=1:0:0 / analyse=0x3:0x133 / me=umh / subme=7 / psy=1 / fade_compensate=0.00 / psy_rd=1.00:0.00 / mixed_ref=1 / me_range=16 / chroma_me=1 / trellis=1 / 8x8dct=1 / cqm=0 / deadzone=21,11 / fast_pskip=1 / chroma_qp_offset=-2 / threads=18 / lookahead_threads=3 / sliced_threads=0 / nr=0 / decimate=1 / interlaced=0 / bluray_compat=0 / constrained_intra=0 / bframes=3 / b_pyramid=2 / b_adapt=2 / b_bias=0 / direct=3 / weightb=1 / open_gop=0 / weightp=2 / keyint=250 / keyint_min=23 / scenecut=40 / intra_refresh=0 / rc_lookahead=40 / rc=2pass / mbtree=1 / bitrate=8320 / ratetol=1.0 / qcomp=0.60 / qpmin=0 / qpmax=69 / qpstep=4 / cplxblur=20.0 / qblur=0.5 / ip_ratio=1.40 / aq=1:1.00
Язык : English
Default : Да
Forced : Да

Аудио #1
Идентификатор : 2
Формат : AC-3
Формат/Информация : Audio Coding 3
Расширение режима : CM (complete main)
Параметр Endianness формата : Big
Идентификатор кодека : A_AC3
Продолжительность : 2 ч. 23 м.
Вид битрейта : Постоянный
Битрейт : 448 Кбит/сек
Каналы : 6 каналов
Расположение каналов : Front: L C R, Side: L R, LFE
Частота : 48,0 КГц
Битовая глубина : 16 бит
Метод сжатия : С потерями
Размер потока : 459 Мбайт (4%)
Язык : Russian
Default : Да
Forced : Да

Аудио #2
Идентификатор : 3
Формат : AC-3
Формат/Информация : Audio Coding 3
Расширение режима : CM (complete main)
Параметр Endianness формата : Big
Идентификатор кодека : A_AC3
Продолжительность : 2 ч. 23 м.
Вид битрейта : Постоянный
Битрейт : 448 Кбит/сек
Каналы : 6 каналов
Расположение каналов : Front: L C R, Side: L R, LFE
Частота : 48,0 КГц
Битовая глубина : 16 бит
Метод сжатия : С потерями
Размер потока : 459 Мбайт (4%)
Язык : Ukrainian
Default : Нет
Forced : Нет

Аудио #3
Идентификатор : 4
Формат : DTS
Формат/Информация : Digital Theater Systems
Режим : 16
Параметр Endianness формата : Big
Идентификатор кодека : A_DTS
Продолжительность : 2 ч. 23 м.
Вид битрейта : Постоянный
Битрейт : 1509 Кбит/сек
Каналы : 6 каналов
Расположение каналов : Front: L C R, Side: L R, LFE
Частота : 48,0 КГц
Битовая глубина : 24 бит
Метод сжатия : С потерями
Размер потока : 1,51 Гбайт (14%)
Язык : English
Default : Нет
Forced : Нет

Текст
Идентификатор : 5
Формат : UTF-8
Идентификатор кодека : S_TEXT/UTF8
Идентификатор кодека/Информация : UTF-8 Plain Text
Язык : English
Default : Нет
Forced : Нет

Меню
00:00:00.000 : en:00:00:00.000
00:04:28.477 : en:00:04:28.477
00:07:32.452 : en:00:07:32.452
00:12:47.392 : en:00:12:47.392
00:16:47.465 : en:00:16:47.465
00:21:37.338 : en:00:21:37.338
00:25:00.290 : en:00:25:00.290
00:29:25.222 : en:00:29:25.222
00:35:06.146 : en:00:35:06.146
00:38:27.764 : en:00:38:27.764
00:41:24.440 : en:00:41:24.440
00:46:22.905 : en:00:46:22.905
00:50:48.629 : en:00:50:48.629
00:54:53.290 : en:00:54:53.290
00:59:38.742 : en:00:59:38.742
01:05:14.244 : en:01:05:14.244
01:10:16.671 : en:01:10:16.671
01:17:09.750 : en:01:17:09.750
01:20:55.059 : en:01:20:55.059
01:26:10.374 : en:01:26:10.374
01:31:49.754 : en:01:31:49.754
01:37:04.527 : en:01:37:04.527
01:40:49.085 : en:01:40:49.085
01:43:45.970 : en:01:43:45.970
01:45:54.723 : en:01:45:54.723
01:52:10.599 : en:01:52:10.599
01:54:45.796 : en:01:54:45.796
01:58:13.044 : en:01:58:13.044
02:02:49.112 : en:02:02:49.112
02:09:38.646 : en:02:09:38.646
02:14:49.623 : en:02:14:49.623
02:17:46.425 : en:02:17:46.425


Приятного просмотра!
загрузка...
Правила, инструкции, FAQ!!!
Торрент  Добавлен [01 фев 2013, 19:40] Скачать торрент
Скачать торрент
[ Размер 13.95 КБ / Просмотров 9 ]

Статус
Проверен 
 
Размер  10.73 ГБ
Приватный: Нет (DHT включён)
.torrent скачан  0
Как залить торрент? | Как скачать Torrent? | Как смотреть и слушать онлайн?  


     Отправить личное сообщение
   
Страница 1 из 1
Показать сообщения за:  Поле сортировки  
Начать новую тему Ответить на тему

   Похожие торренты   Автор   Ответы   Просмотры   Последнее сообщение 
В этой теме нет новых непрочитанных сообщений. Скачать торрент Проверен Дocпexu Бoгa 3: Muccuя Зoдuaк в 3Д / Сhinеsе Zоdiас 3D (Джeки Чaн / Jасkiе Сhаn) [2012, Боевик, Комедия, Приключения, BDrip, 1080p] OverUnder / Вертикальная стереопара

в форуме HD-Video в 3D, Размер: 27.68 ГБ, Здоровье: 100%

Anonymous

0
21|7

42
0

11 июл 2014, 12:12

Anonymous Перейти к последнему сообщению

В этой теме нет новых непрочитанных сообщений. Скачать торрент Дорога перемен / Revolutionary Road (Сэм Мендес / Sam Mendes) [2008, США, Великобритания, Драма, мелодрама, BDRip] Dub

в форуме Драмы, Мелодрамы, Размер: 1.46 ГБ, Здоровье: 0%

Anonymous

0
0|0

24
0

13 фев 2014, 06:32

Anonymous Перейти к последнему сообщению

В этой теме нет новых непрочитанных сообщений. Скачать торрент Проверен [iPad] Морпехи / Jarhead (Сэм Мендес/ Sam Mendes) [2005, Германия, США, Военный, драма, биография, BDRip, 576p] Dub + Original + sub (rus, eng)

в форуме Фильмы для iPod, iPhone, iPad, Размер: 2.11 ГБ, Здоровье: 100%

Anonymous

0
4|1

41
0

18 май 2015, 10:47

Anonymous Перейти к последнему сообщению

В этой теме нет новых непрочитанных сообщений. Скачать торрент Проверен Запрещенная реальность (Константин Максимов) [2009, Россия, фантастика, боевик, BDRip 1080p]

в форуме Наше кино (HD Video), Размер: 7.96 ГБ, Здоровье: 100%

Anonymous

0
9|3

25
0

12 апр 2015, 15:06

Anonymous Перейти к последнему сообщению

В этой теме нет новых непрочитанных сообщений. Скачать торрент Подводная лодка Ю-571 / U-571 (Джонатан Мостоу / Jonathan Mostow) [2000 г., боевик, драма, военный, BDRip 1080p]

в форуме 720p | 1080p, Размер: 10.29 ГБ, Здоровье: 100%

Anonymous

0
8|2

48
0

25 фев 2014, 22:40

Anonymous Перейти к последнему сообщению



Сейчас этот форум просматривают: нет зарегистрированных пользователей и гости: 2


Вы не можете начинать темы
Вы не можете отвечать на сообщения
Вы не можете редактировать свои сообщения
Вы не можете удалять свои сообщения
Вы не можете добавлять вложения

Перейти:  

!ВНИМАНИЕ!
 Ресурс не предоставляет электронные версии произведений, а занимается лишь коллекционированием и каталогизацией ссылок, присылаемых и публикуемых на форуме нашими читателями. Если вы являетесь правообладателем какого-либо представленного материала и не желаете чтобы ссылка на него находилась в нашем каталоге, свяжитесь с нами и мы незамедлительно удалим её. Файлы для обмена на трекере предоставлены пользователями сайта, и администрация не несёт ответственности за их содержание. Просьба не заливать файлы, защищенные авторскими правами, а также файлы нелегального содержания!