На всех торрентах на трекере установлена скидка на скачивание в размере 100 процентов(а).
 Возможность скачивания торрента НЕ зависит от ограничений при низком ратио, низком аплоаде, требуемом ратио или требуемом аплоаде.


Начать новую тему Ответить на тему
Статистика раздачи
Размер: 9.88 ГБ | Добавлен: 27 окт 2012, 19:47 | Скачали: 5
Сидеров: 15  [0 байт/сек]    Личеров: 23  [0 байт/сек]
Пред. тема | След. тема 

Автор
Сообщение

СообщениеДобавлено: 27 окт 2012, 19:47 

Информация о фильме:
Название: Побег из замка Колдиц
Оригинальное название: Colditz
Год выхода: 2005
Жанр: Военный, драма
Режиссер: Стюарт Орм
В ролях: Дамиан Льюис, София Майлс, Том Харди, Лоуренс Фокс, Джеймс Фокс, Тимоти Уэст, Джейсон Пристли, Гай Генри, Роберт Уайтлок, Скотт Хэнди, Джо Битти, Люк Нил, Джульетт Хоуланд, Ив Майлс, Рюдигер Фоглер, Роберт Камбринус, Вернер Даен, Чарльз Эдвардс, Стефан Корникард, Дэниэл Вейман, Петр Мейссел, Павел Криз

О фильме В начале Второй мировой трое британских офицеров бегут из немецкого лагеря для военнопленных. Джек Роуз и Том Уиллис вновь попадают в плен и их отправляют в лагерь строгого режима Колдиц — хорошо охраняемый готический замок, куда ссылали самых непокорных офицеров. Третий из беглецов, Ник МакГрейд добирается домой. В Лондоне он разыскивает подругу Джека Лиззи и сразу же безнадежно влюбляется в нее. С этого момента Ник думает лишь об одном: Джек и Лиззи больше никогда не должны увидеться. Используя служебное положение, он фабрикует сообщение о гибели Джека. Тем временем Джек и Том с риском для жизни предпринимают попытку бежать из замка Колдиц…



Страна: Великобритания
Продолжительность: 03:00:17
Перевод: Профессиональный (закадровый, многоголосый)


Качество: BDRip
Контейнер: MKV
Видео: x264 AVC, ~5950 kbps, 1280х720p, 25.00 fps, 16:9
Аудио 1: Russian, AC-3, 5.1 ch, 48 kHz, 448 kbps Профессиональный (закадровый, многоголосый)
Аудио 2: English, DTS 5.1 ch, 48 kHz, 1510 kbps
Субтитры: Russian (Full)
Общее
Уникальный идентификатор : 231233499677085687197823287632218121003 (0xADF5F3BDF68810D7B6C4251A4EA9632B)
Полное имя : D:Побег из замка Колдиц.mkv
Формат : Matroska
Версия формата : Version 2
Размер файла : 9,88 Гбайт
Продолжительность : 3 ч. 0 м.
Общий поток : 7843 Кбит/сек
Название фильма : Побег из замка Колдиц / Colditz.2005 Release for HDtracker& MeGUI
Дата кодирования : UTC 2012-10-26 14:14:45
Программа кодирования : mkvmerge v3.4.0 ('Rapunzel') сборка от May 15 2010 09:38:20
Библиотека кодирования : libebml v0.8.0 + libmatroska v0.9.0
Attachment : Yes

Видео
Идентификатор : 1
Формат : AVC
Формат/Информация : Advanced Video Codec
Профиль формата : High@L4.1
Параметр CABAC формата : Да
Параметр ReFrames формата : 8 кадров
Идентификатор кодека : V_MPEG4/ISO/AVC
Продолжительность : 3 ч. 0 м.
Битрейт : 5950 Кбит/сек
Ширина : 1280 пикс.
Высота : 720 пикс.
Соотношение сторон : 16:9
Частота кадров : 25,000 кадр/сек
Цветовое пространство : YUV
Подвыборка цветности : 4:2:0
Битовая глубина : 8 бит
Тип развёртки : Прогрессивная
Бит/(Пиксели*Кадры) : 0.258
Размер потока : 7,30 Гбайт (74%)
Библиотека кодирования : x264 core 128 r2216 198a7ea
Настройки программы : cabac=1 / ref=8 / deblock=1:-3:-3 / analyse=0x3:0x133 / me=umh / subme=11 / psy=1 / psy_rd=1.05:0.00 / mixed_ref=1 / me_range=32 / chroma_me=1 / trellis=2 / 8x8dct=1 / cqm=0 / deadzone=21,11 / fast_pskip=0 / chroma_qp_offset=-2 / threads=12 / lookahead_threads=2 / sliced_threads=0 / nr=0 / decimate=1 / interlaced=0 / bluray_compat=0 / constrained_intra=0 / bframes=6 / b_pyramid=2 / b_adapt=2 / b_bias=0 / direct=1 / weightb=1 / open_gop=0 / weightp=1 / keyint=250 / keyint_min=23 / scenecut=40 / intra_refresh=0 / rc_lookahead=60 / rc=2pass / mbtree=1 / bitrate=5950 / ratetol=1.0 / qcomp=0.70 / qpmin=0 / qpmax=69 / qpstep=4 / cplxblur=20.0 / qblur=0.5 / vbv_maxrate=50000 / vbv_bufsize=62500 / nal_hrd=none / ip_ratio=1.30 / aq=2:1.00
Язык : English
Основные цвета : BT.709-5, BT.1361, IEC 61966-2-4, SMPTE RP177
Характеристики трансфера : BT.709-5, BT.1361
Коэффициенты матрицы : BT.709-5, BT.1361, IEC 61966-2-4 709, SMPTE RP177

Аудио #1
Идентификатор : 2
Формат : AC-3
Формат/Информация : Audio Coding 3
Расширение режима : CM (complete main)
Идентификатор кодека : A_AC3
Продолжительность : 3 ч. 0 м.
Вид битрейта : Постоянный
Битрейт : 384 Кбит/сек
Каналы : 6 каналов
Расположение каналов : Front: L C R, Side: L R, LFE
Частота : 48,0 КГц
Битовая глубина : 16 бит
Метод сжатия : С потерями
Размер потока : 495 Мбайт (5%)
Заголовок : AC3 5.1 MVO
Язык : Russian

Аудио #2
Идентификатор : 3
Формат : DTS
Формат/Информация : Digital Theater Systems
Идентификатор кодека : A_DTS
Продолжительность : 3 ч. 0 м.
Вид битрейта : Постоянный
Битрейт : 1510 Кбит/сек
Каналы : 6 каналов
Расположение каналов : Front: L C R, Side: L R, LFE
Частота : 48,0 КГц
Битовая глубина : 24 бит
Метод сжатия : С потерями
Размер потока : 1,90 Гбайт (19%)
Заголовок : DTS 5.1 Original
Язык : English

Текст
Идентификатор : 4
Формат : UTF-8
Идентификатор кодека : S_TEXT/UTF8
Идентификатор кодека/Информация : UTF-8 Plain Text
Заголовок : Full
Язык : Russian

Меню
00:00:00.000 : en:00:00:00.000
00:04:37.903 : en:00:04:37.903
00:14:51.099 : en:00:14:51.099
00:25:44.084 : en:00:25:44.084
00:30:39.379 : en:00:30:39.379
00:35:26.333 : en:00:35:26.333
00:40:25.131 : en:00:40:25.131
00:44:36.382 : en:00:44:36.382
00:47:49.909 : en:00:47:49.909
00:51:19.118 : en:00:51:19.118
00:56:27.676 : en:00:56:27.676
01:04:03.298 : en:01:04:03.298
01:08:05.373 : en:01:08:05.373
01:14:43.646 : en:01:14:43.646
01:20:18.689 : en:01:20:18.689
01:29:58.852 : en:01:29:58.852
01:32:18.700 : en:01:32:18.700
01:34:13.606 : en:01:34:13.606
01:39:12.613 : en:01:39:12.613
01:43:40.339 : en:01:43:40.339
01:48:40.305 : en:01:48:40.305
01:54:40.330 : en:01:54:40.330
01:59:40.330 : en:01:59:40.330
02:06:40.300 : en:02:06:40.300
02:11:40.300 : en:02:11:40.300
02:19:13.606 : en:02:19:13.606
02:26:40.300 : en:02:26:40.300
02:35:14.330 : en:02:35:14.330
02:47:40.300 : en:02:47:40.300
02:55:40.100 : en:02:55:40.100

загрузка...
Правила, инструкции, FAQ!!!
Торрент  Добавлен [27 окт 2012, 19:47] Скачать торрент
Скачать торрент
[ Размер 25.27 КБ / Просмотров 24 ]

Статус
Проверен 
 
Размер  9.88 ГБ
Приватный: Нет (DHT включён)
.torrent скачан  5
Как залить торрент? | Как скачать Torrent? | Как смотреть и слушать онлайн?  


     Отправить личное сообщение
   
Страница 1 из 1
Показать сообщения за:  Поле сортировки  
Начать новую тему Ответить на тему

   Похожие торренты   Автор   Ответы   Просмотры   Последнее сообщение 
В этой теме нет новых непрочитанных сообщений. Скачать торрент Проверен Побег из замка Колдиц / Colditz (2005) HDRip | P

в форуме Военные, Размер: 2.18 ГБ, Здоровье: 100%

Anonymous

0
361|271

183
231

13 май 2015, 14:30

Anonymous Перейти к последнему сообщению

В этой теме нет новых непрочитанных сообщений. Скачать торрент Побег из тюрьмы / Prison Break [S01-04 + Финальный побег] (2005-2009) BDRip 720p

в форуме Зарубежные сериалы, Размер: 59.49 ГБ, Здоровье: 100%

Anonymous

0
47|0

101
0

15 мар 2014, 21:20

Anonymous Перейти к последнему сообщению

В этой теме нет новых непрочитанных сообщений. Скачать торрент Проверен Тайна замка тамплиеров / La commanderie [s01] (2010) BDRip 720p

в форуме Зарубежные сериалы, Размер: 19.33 ГБ, Здоровье: 100%

Anonymous

0
1|1

94
5

11 июн 2014, 22:53

Anonymous Перейти к последнему сообщению

В этой теме нет новых непрочитанных сообщений. Скачать торрент Побег из Шоушенка / The Shawshank Redemption (1994) BDRip 720p

в форуме 720p | 1080p, Размер: 3.75 ГБ, Здоровье: 100%

Anonymous

0
202|5

24
155

18 дек 2013, 10:18

Anonymous Перейти к последнему сообщению

В этой теме нет новых непрочитанных сообщений. Скачать торрент Побег из Нью-Йорка и Лос-Анджелеса: Дилогия / Escape from New York & L.A. (1981/1996) BDRip 720p

в форуме Дилогии, Размер: 7.68 ГБ, Здоровье: 100%

Anonymous

0
36|8

231
125

22 фев 2014, 18:17

Anonymous Перейти к последнему сообщению



Сейчас этот форум просматривают: нет зарегистрированных пользователей и гости: 1


Вы не можете начинать темы
Вы не можете отвечать на сообщения
Вы не можете редактировать свои сообщения
Вы не можете удалять свои сообщения
Вы не можете добавлять вложения

Перейти:  

!ВНИМАНИЕ!
 Ресурс не предоставляет электронные версии произведений, а занимается лишь коллекционированием и каталогизацией ссылок, присылаемых и публикуемых на форуме нашими читателями. Если вы являетесь правообладателем какого-либо представленного материала и не желаете чтобы ссылка на него находилась в нашем каталоге, свяжитесь с нами и мы незамедлительно удалим её. Файлы для обмена на трекере предоставлены пользователями сайта, и администрация не несёт ответственности за их содержание. Просьба не заливать файлы, защищенные авторскими правами, а также файлы нелегального содержания!