На всех торрентах на трекере установлена скидка на скачивание в размере 100 процентов(а).
 Возможность скачивания торрента НЕ зависит от ограничений при низком ратио, низком аплоаде, требуемом ратио или требуемом аплоаде.


Начать новую тему Ответить на тему
Статистика раздачи
Размер: 2.18 ГБ | Добавлен: 31 янв 2013, 15:25 | Скачали: 0
Сидеров: 0  [0 байт/сек]    Личеров: 0  [0 байт/сек]
Пред. тема | След. тема 

Автор
Сообщение

СообщениеДобавлено: 31 янв 2013, 15:25 

Название: Самый пьяный округ в мире
Год выхода: 2012
Жанр: драма, криминал
Режиссер: Джон Хиллкоут

В ролях: Шайа ЛаБаф, Том Харди, Гари Олдман, Джессика Честейн, Гай Пирс, Джейсон Кларк, Миа Васиковска, Дэйн ДеХаан, Крис МакГарри, Тим Толин

О фильме:
Действие в картине разворачивается на американском Юге во времена сухого закона и Великой Депрессии. В центре сюжета — семья Бондурант, три брата, Джек, Форрест и Говард, которые занимаются запрещенным в то время бизнесом, бутлегерством.

Оптимистично настроенный Джек, самый молодой из братьев, надеется с помощью бутлегерства заработать денег и произвести впечатление на свою девушку Берту. В это же время Форрест, напротив, настроен очень мрачно, он молчалив и подозрителен, а Говарду к тому же часто приходится иметь дело с врагами незаконного семейного бизнеса, в лице которых выступают коррумпированные местные полицейские.



Страна: США
Студия: Annapurna Pictures, Benaroya Pictures, Blum Hanson Allen Films, FilmNation Entertainment, Pie Films Inc., Red Wagon Productions, Yucaipa Films
Продолжительность: 01:55:45
Перевод: Профессиональный дублированный

Формат: MKV
Кодек: H.264
Качество: BDRip-AVC
Видео: h264 (High), yuv420p, 1056x440 [PAR 1:1 DAR 12:5], 2249 kbps, 23.98 fps, 23.98 tbr, 1k tbn, 47.95 tbc
Звук: AC3, 48000 Hz, 5.1, s16, 448 kb/s

General
Unique ID : 268078319624039767132647758311356260118 (0xC9AE019E384F8DE4EA9DAA93A8A25F16)
Complete name : /mnt/disk/Video/Lawless.2012.Rus.Dub.BDRip.x264.mkv
Format : Matroska
File size : 2.18 GiB
Duration : 1h 55mn
Overall bit rate : 2 697 Kbps
Movie name : Самый пьяный округ в мире / Lawless (2012) BDRip-AVC | video by POTROKS
Encoded date : UTC 2013-01-31 07:56:42
Writing application : mkvmerge v4.8.0 ('I Got The...') сборка от Aug 22 2011 13:16:28
Writing library : libebml v1.2.0 + libmatroska v1.1.0

Video
ID : 1
Format : AVC
Format/Info : Advanced Video Codec
Format profile : High@L4.1
Format settings, CABAC : Yes
Format settings, ReFrames : 11 frames
Codec ID : V_MPEG4/ISO/AVC
Duration : 1h 55mn
Bit rate : 2 249 Kbps
Width : 1 056 pixels
Height : 440 pixels
Display aspect ratio : 2.40:1
Frame rate mode : Variable
Frame rate : 23.976 fps
Color space : YUV
Chroma subsampling : 4:2:0
Bit depth : 8 bits
Scan type : Progressive
Bits/(Pixel*Frame) : 0.202
Stream size : 1.78 GiB (81%)
Title : Самый пьяный округ в мире
Writing library : x264 core 128 r2216M 198a7ea
Encoding settings : cabac=1 / ref=12 / deblock=1:-2:-2 / analyse=0x3:0x133 / me=umh / subme=11 / psy=1 / psy_rd=1.04:0.04 / mixed_ref=1 / me_range=48 / chroma_me=1 / trellis=2 / 8x8dct=1 / cqm=0 / deadzone=21,11 / fast_pskip=0 / chroma_qp_offset=-3 / threads=4 / lookahead_threads=1 / sliced_threads=0 / nr=0 / decimate=1 / interlaced=0 / bluray_compat=0 / constrained_intra=0 / bframes=13 / b_pyramid=1 / b_adapt=2 / b_bias=0 / direct=3 / weightb=1 / open_gop=0 / weightp=2 / keyint=240 / keyint_min=23 / scenecut=40 / intra_refresh=0 / rc_lookahead=200 / rc=2pass / mbtree=1 / bitrate=2249 / ratetol=1.0 / qcomp=0.70 / qpmin=0 / qpmax=69 / qpstep=3 / cplxblur=20.0 / qblur=0.5 / vbv_maxrate=20000 / vbv_bufsize=25000 / nal_hrd=none / ip_ratio=1.35 / aq=1:0.80

Audio
ID : 2
Format : AC-3
Format/Info : Audio Coding 3
Mode extension : CM (complete main)
Codec ID : A_AC3
Duration : 1h 55mn
Bit rate mode : Constant
Bit rate : 448 Kbps
Channel(s) : 6 channels
Channel positions : Front: L C R, Side: L R, LFE
Sampling rate : 48.0 KHz
Bit depth : 16 bits
Compression mode : Lossy
Stream size : 371 MiB (17%)
Title : Дубляж
Language : Russian


загрузка...
Правила, инструкции, FAQ!!!
Торрент  Добавлен [31 янв 2013, 15:25] Скачать торрент
Скачать торрент
[ Размер 88.97 КБ / Просмотров 17 ]

Статус
Проверен 
 
Размер  2.18 ГБ
Приватный: Нет (DHT включён)
.torrent скачан  0
Как залить торрент? | Как скачать Torrent? | Как смотреть и слушать онлайн?  


     Отправить личное сообщение
   
Страница 1 из 1
Показать сообщения за:  Поле сортировки  
Начать новую тему Ответить на тему

   Похожие торренты   Автор   Ответы   Просмотры   Последнее сообщение 
В этой теме нет новых непрочитанных сообщений. Скачать торрент Проверен [iPad] Грязь / Filth (Джон С. Бейрд / Jon S. Baird ) [2013, Великобритания, Криминал, драма, комедия, BDRip, SD (576p)] DUB + Original + sub (rus, eng)

в форуме Фильмы для iPod, iPhone, iPad, Размер: 1.67 ГБ, Здоровье: 100%

Гость

0
55|17

54
3

14 май 2015, 00:21

Гость Перейти к последнему сообщению

В этой теме нет новых непрочитанных сообщений. Скачать торрент Макс Пэйн / Max Payne (Джон Мур / John Moore) [2008 г., боевик, триллер, драма, криминал, детектив, BDRip] [Unrated] Dub + Mvo (Киномания) + Original + Subs (Rus, Rus Forced, Eng)

в форуме Боевики, Размер: 2.51 ГБ, Здоровье: 100%

Anonymous

0
14|5

88
0

19 фев 2014, 11:40

Anonymous Перейти к последнему сообщению

В этой теме нет новых непрочитанных сообщений. Скачать торрент Джон Ф. Кеннеди: Выстрелы в Далласе / JFK (Оливер Стоун / Oliver Stone) [1991, триллер, драма, криминал, детектив, биография, BDRip] [Режиссерская версия / Director's Cut] DUB + DVO + Original + Sub (Rus, Eng)

в форуме Триллеры, Размер: 4.36 ГБ, Здоровье: 100%

Anonymous

0
8|2

68
0

01 фев 2014, 19:05

Anonymous Перейти к последнему сообщению

В этой теме нет новых непрочитанных сообщений. Скачать торрент Парни Южного Централа / Ребята с улицы / Парни с соседнего двора / Boyz N The Hood (Джон Синглтон / John Singleton) [1991, США, драма, криминал, BDRip-AVC] MVO ТНТ (Россия) + AVO Гаврилов Original Eng

в форуме 720p | 1080p, Размер: 2.87 ГБ, Здоровье: 100%

Anonymous

0
35|9

122
3

01 фев 2014, 19:06

Anonymous Перейти к последнему сообщению

В этой теме нет новых непрочитанных сообщений. Скачать торрент Проверен Гришэм Джон - Округ Форд.Рассказы. [Валерий Стельмащук,(ЛИ) 2016 г., 96 kbps, MP3]

в форуме Детектив и Боевики, Размер: 475.63 МБ, Здоровье: 0%

Anonymous

0
0|0

0
0

20 ноя 2016, 16:44

Anonymous Перейти к последнему сообщению



Сейчас этот форум просматривают: нет зарегистрированных пользователей и гости: 1


Вы не можете начинать темы
Вы не можете отвечать на сообщения
Вы не можете редактировать свои сообщения
Вы не можете удалять свои сообщения
Вы не можете добавлять вложения

Перейти:  

!ВНИМАНИЕ!
 Ресурс не предоставляет электронные версии произведений, а занимается лишь коллекционированием и каталогизацией ссылок, присылаемых и публикуемых на форуме нашими читателями. Если вы являетесь правообладателем какого-либо представленного материала и не желаете чтобы ссылка на него находилась в нашем каталоге, свяжитесь с нами и мы незамедлительно удалим её. Файлы для обмена на трекере предоставлены пользователями сайта, и администрация не несёт ответственности за их содержание. Просьба не заливать файлы, защищенные авторскими правами, а также файлы нелегального содержания!