На всех торрентах на трекере установлена скидка на скачивание в размере 100 процентов(а).
 Возможность скачивания торрента НЕ зависит от ограничений при низком ратио, низком аплоаде, требуемом ратио или требуемом аплоаде.


Начать новую тему Ответить на тему
Статистика раздачи
Размер: 3.56 ГБ | Добавлен: 27 июн 2014, 06:16 | Скачали: 1724
Сидеров: 33  [0 байт/сек]    Личеров: 0  [0 байт/сек]
Пред. тема | След. тема 

Автор
Сообщение

СообщениеДобавлено: 27 июн 2014, 06:16 

Название: Втайне / Тереза Ракен
Оригинальное название: In Secret
Год выхода: 2013
Жанр: триллер, криминал, драма
Режиссер: Чарльз Стрэттон / Charlie Stratton

В ролях: Элизабет Олсен / Elizabeth Olsen, Оскар Айзек / Oscar Isaac, Джессика Лэнг / Jessica Lange, Том Фелтон / Tom Felton, Ширли Хендерсон / Shirley Henderson, Мэтт Лукас / Matt Lucas, Макензи Крук / Mackenzie Crook, Джон Кэвэна / John Kavanagh, Лили Лэйт / Lily Laight, Мэтт Девере / Matt Devere

О фильме:
Молодая женщина Тереза, которая, рано оставшись без родителей, выросла под бдительным оком своей властной тетки, вышла замуж за своего двоюродного брата Камила. Болезненный и эгоистичный Камил никогда особенно не привлекал Терезу, и при первой же возможности она заводит бурный роман с одним из его друзей, Лораном.



Страна: США
Студия: LD Entertainment (American independent film studio)
Продолжительность: 01:46:20
Перевод: Любительский одноголосый закадровый - [Синта Рурони]

Качество: WEB-DL 1080p
Формат: MKV
Видео: MPEG-4 AVC Video, 1908x792 pixels / 2.40:1 / 3926 kbps / 23,976 fps
Аудио кодек: AC3
Audio 1: 48 kHz, AC3 Dolby Digital, 3/2 (L,C,R,l,r) + LFE ch (Russian), ~448.00 kbps avg
Audio 2: 48 kHz, AC3 Dolby Digital, 3/2 (L,C,R,l,r) + LFE ch (English), ~448.00 kbps avg
Субтитры: нет

Сведение звука: - karavajoe

Перевод состоялся благодаря пользователям: xelos, karavajoe, zalivan, Slick Suslick

Знаете ли вы, что...

✓ Фильм является экранизацией романа Эмиля Золя «Тереза Ракен».

✓ Джерард Батлер мог сыграть Лорана.

✓ Долгое время Кейт Уинслет была прикреплена к проекту в качестве исполнительницы главной роли. Потом ее заменила Джессика Бил. Осенью 2011 года на главную роль утвердили Элизабет Олсен.

✓ Гленн Клоуз должна была исполнить роль мадам Ракен, но ушла из проекта, после ее ухода пригласили Джессику Лэнг.
Семпл

Format : Matroska
Format version : Version 2
File size : 3.56 GiB
Duration : 1h 46mn
Overall bit rate : 4 777 Kbps
Encoded date : UTC 2014-06-26 13:55:50
Writing application : mkvmerge v4.7.0 ('Just Like You Imagined') сборка от Apr 21 2011 01:13:14
Writing library : libebml v1.2.0 + libmatroska v1.1.0
Attachment : Yes / Yes / Yes / Yes

Video
ID : 1
Format : AVC
Format/Info : Advanced Video Codec
Format profile : High@L4.0
Format settings, CABAC : Yes
Format settings, ReFrames : 5 frames
Codec ID : V_MPEG4/ISO/AVC
Duration : 1h 46mn
Bit rate : 3 786 Kbps
Width : 1 908 pixels
Height : 792 pixels
Display aspect ratio : 2.40:1
Frame rate : 23.976 fps
Color space : YUV
Chroma subsampling : 4:2:0
Bit depth : 8 bits
Scan type : Progressive
Bits/(Pixel*Frame) : 0.104
Stream size : 2.82 GiB (79%)
Language : English
Color primaries : BT.709-5, BT.1361, IEC 61966-2-4, SMPTE RP177
Transfer characteristics : BT.709-5, BT.1361
Matrix coefficients : BT.709-5, BT.1361, IEC 61966-2-4 709, SMPTE RP177

Audio #1
ID : 2
Format : AC-3
Format/Info : Audio Coding 3
Mode extension : CM (complete main)
Codec ID : A_AC3
Duration : 1h 46mn
Bit rate mode : Constant
Bit rate : 448 Kbps
Channel(s) : 6 channels
Channel positions : Front: L C R, Side: L R, LFE
Sampling rate : 48.0 KHz
Bit depth : 16 bits
Compression mode : Lossy
Stream size : 342 MiB (9%)
Title : Russian_by_Sinta
Language : Russian

Audio #2
ID : 3
Format : AC-3
Format/Info : Audio Coding 3
Mode extension : CM (complete main)
Codec ID : A_AC3
Duration : 1h 46mn
Bit rate mode : Constant
Bit rate : 448 Kbps
Channel(s) : 6 channels
Channel positions : Front: L C R, Side: L R, LFE
Sampling rate : 48.0 KHz
Bit depth : 16 bits
Compression mode : Lossy
Stream size : 342 MiB (9%)
Title : English
Language : English

Menu
00:00:00.000 : en:Chapter 1
00:10:05.000 : en:Chapter 2
00:19:58.000 : en:Chapter 3
00:30:56.000 : en:Chapter 4
00:40:12.000 : en:Chapter 5
00:49:58.000 : en:Chapter 6
00:59:02.000 : en:Chapter 7
01:09:34.000 : en:Chapter 8
01:20:13.000 : en:Chapter 9
01:30:34.000 : en:Chapter 10
01:42:31.000 : en:Chapter 11


загрузка...
Правила, инструкции, FAQ!!!
Торрент  Добавлен [27 июн 2014, 06:16] Скачать торрент
Скачать торрент
[ Размер 18.33 КБ / Просмотров 5 ]

Статус
Проверен 
 
Размер  3.56 ГБ
Приватный: Нет (DHT включён)
.torrent скачан  1724
Как залить торрент? | Как скачать Torrent? | Как смотреть и слушать онлайн?  


     Отправить личное сообщение
   
Страница 1 из 1
Показать сообщения за:  Поле сортировки  
Начать новую тему Ответить на тему

   Похожие торренты   Автор   Ответы   Просмотры   Последнее сообщение 
В этой теме нет новых непрочитанных сообщений. Скачать торрент Проверен Тереза Ракен / In Secret (2013) HDRip | L1

в форуме Триллеры, Размер: 2.03 ГБ, Здоровье: 37%

Anonymous

0
20|54

46
18

09 ноя 2014, 09:00

Anonymous Перейти к последнему сообщению

В этой теме нет новых непрочитанных сообщений. Скачать торрент Проверен Тайна в их глазах / Secret in Their Eyes (2015) BDRip 1080p | Line

в форуме 720p | 1080p, Размер: 8.37 ГБ, Здоровье: 100%

Гость

0
23|0

234
2

13 фев 2016, 00:10

Гость Перейти к последнему сообщению

В этой теме нет новых непрочитанных сообщений. Скачать торрент Проверен Kingsman: Секретная служба / Kingsman: The Secret Service (2014) WEB-DL 1080p | iTunes

в форуме 720p | 1080p, Размер: 4.63 ГБ, Здоровье: 100%

Гость

0
11439|2585

36
24886

16 май 2015, 00:31

Гость Перейти к последнему сообщению

В этой теме нет новых непрочитанных сообщений. Скачать торрент Проверен Тереза Энн Фаулер - Z – значит Зельда [2015, PDF, RUS]

в форуме Зарубежная литература (XX и XXI век), Размер: 8.03 МБ, Здоровье: 0%

Anonymous

0
0|0

2
0

08 сен 2016, 19:07

Anonymous Перейти к последнему сообщению

В этой теме нет новых непрочитанных сообщений. Скачать торрент Проверен Феи: Тайна зимнего леса в 3Д / Secret of the Wings 3D (Роберт Ганнавей, Пегги Холмс / Robert Gannaway,Peggy Holmes) [2012, Мультфильм, фэнтези, приключения, BDremux, 1080p] BD3D

в форуме 3D Мультфильмы, Размер: 23.79 ГБ, Здоровье: 0%

Anonymous

0
0|0

4
0

07 сен 2016, 18:10

Anonymous Перейти к последнему сообщению



Сейчас этот форум просматривают: нет зарегистрированных пользователей и гости: 5


Вы не можете начинать темы
Вы не можете отвечать на сообщения
Вы не можете редактировать свои сообщения
Вы не можете удалять свои сообщения
Вы не можете добавлять вложения

Перейти:  

!ВНИМАНИЕ!
 Ресурс не предоставляет электронные версии произведений, а занимается лишь коллекционированием и каталогизацией ссылок, присылаемых и публикуемых на форуме нашими читателями. Если вы являетесь правообладателем какого-либо представленного материала и не желаете чтобы ссылка на него находилась в нашем каталоге, свяжитесь с нами и мы незамедлительно удалим её. Файлы для обмена на трекере предоставлены пользователями сайта, и администрация не несёт ответственности за их содержание. Просьба не заливать файлы, защищенные авторскими правами, а также файлы нелегального содержания!