На всех торрентах на трекере установлена скидка на скачивание в размере 100 процентов(а).
 Возможность скачивания торрента НЕ зависит от ограничений при низком ратио, низком аплоаде, требуемом ратио или требуемом аплоаде.


Начать новую тему Ответить на тему
Статистика раздачи
Размер: 12.16 ГБ | Добавлен: 21 июн 2014, 20:44 | Скачали: 0
Сидеров: 24  [0 байт/сек]    Личеров: 1  [0 байт/сек]
Пред. тема | След. тема 

Автор
Сообщение

СообщениеДобавлено: 21 июн 2014, 20:44 

Рейд 2 / The Raid 2: Berandal

Год выпуска: 2014
Страна: Индонезия, США
Жанр: боевик, триллер, криминал
Продолжительность: 02:30:28
Озвучивание: Любительское (одноголосое)
Студия: Pt. Merantau Films, XYZ Films
Режиссёр: Гарет Эванс

В ролях: Ико Ювайс, Арифин Путра, Джули Эстелль, Яян Рухьян, Дони Аламсях, Ока Антара, Кадзуки Китамура, Тио Пакусодево, Алекс Аббад, Сесеп Ариф Рахман

О фильме: Из трех полицейских, выбравшихся из кровавого ада первой части, в живых остается только офицер Рама. Уволившись из спецназа, он пробует начать жизнь заново, но вскоре прошлое жестко напоминает о себе — преступники убивают его брата. Чтобы отомстить, он внедряется в мощный криминальный синдикат, где быстро поднимается до самых вершин бандитской иерархии. Врагов здесь еще больше, и каждый неверный шаг может оказаться последним. Здесь нет ни близких, ни друзей, ни любви, ни тоски, ни жалости!



Качество: BDRip 1080p
Формат: MKV
Видео: MPEG-4 AVC / 8419 kb/s / 1920x800
Аудио #1: Russian / Mp3 / 128 kb/s (2 ch) - Dub TS
Аудио #2: Indonesian / DTS / 1536 kb/s (6 ch) - Original
Аудио #3: English / DTS / 1536 kb/s (6 ch) - Dub
Субтитры: English
Дополнительно: Сохранены оригинальные чаптеры как на Blu-ray
Скачать: Sample


General
Unique ID : 177395438682048205434317797462707784854 (0x85751E6573E9B1E9ABCA7F3898DFCC96)
Complete name : Z:The Raid 2 Berandal 2014 HDR BDRip 1080p.mkv
Format : Matroska
Format version : Version 4 / Version 2
File size : 12.2 GiB
Duration : 2h 30mn
Overall bit rate : 11.6 Mbps
Movie name : The Raid 2: Berandal 2014 HDR BDRip 1080p
Encoded date : UTC 2014-06-21 11:27:28
Writing application : mkvmerge v7.0.0 ('Where We Going') 64bit built on Jun 9 2014 15:16:27
Writing library : libebml v1.3.0 + libmatroska v1.4.1
DURATION : 02:30:28.075000000
NUMBER_OF_FRAMES : 345606
NUMBER_OF_BYTES : 144449202
_STATISTICS_WRITING_APP : mkvmerge v7.0.0 ('Where We Going') 64bit built on Jun 9 2014 15:16:27
_STATISTICS_WRITING_DATE_UTC : 2014-06-21 11:27:28
_STATISTICS_TAGS : BPS DURATION NUMBER_OF_FRAMES NUMBER_OF_BYTES
Attachment : Yes
Video #1
ID : 1
Format : AVC
Format/Info : Advanced Video Codec
Format profile : High@L4.1
Format settings, CABAC : Yes
Format settings, ReFrames : 5 frames
Codec ID : V_MPEG4/ISO/AVC
Duration : 2h 30mn
Bit rate : 8 419 Kbps
Width : 1 920 pixels
Height : 800 pixels
Display aspect ratio : 2.40:1
Frame rate mode : Constant
Frame rate : 23.976 fps
Color space : YUV
Chroma subsampling : 4:2:0
Bit depth : 8 bits
Scan type : Progressive
Bits/(Pixel*Frame) : 0.229
Stream size : 8.61 GiB (71%)
Title : The Raid 2: Berandal 2014 HDR BDRip 1080p
Writing library : x264 core 142 r2431 ac76440
Encoding settings : cabac=1 / ref=5 / deblock=1:0:0 / analyse=0x3:0x133 / me=umh / subme=7 / psy=1 / psy_rd=1.00:0.00 / mixed_ref=1 / me_range=16 / chroma_me=1 / trellis=1 / 8x8dct=1 / cqm=0 / deadzone=21,11 / fast_pskip=0 / chroma_qp_offset=-2 / threads=18 / lookahead_threads=3 / sliced_threads=0 / nr=0 / decimate=1 / interlaced=0 / bluray_compat=0 / constrained_intra=0 / bframes=3 / b_pyramid=2 / b_adapt=1 / b_bias=0 / direct=1 / weightb=1 / open_gop=0 / weightp=2 / keyint=250 / keyint_min=23 / scenecut=40 / intra_refresh=0 / rc_lookahead=40 / rc=2pass / mbtree=1 / bitrate=8419 / ratetol=1.0 / qcomp=0.60 / qpmin=0 / qpmax=69 / qpstep=4 / cplxblur=20.0 / qblur=0.5 / ip_ratio=1.40 / aq=1:1.00
Language : Indonesian
Default : Yes
Forced : No
DURATION : 02:30:27.992000000
NUMBER_OF_FRAMES : 216455
NUMBER_OF_BYTES : 9498967944
_STATISTICS_WRITING_APP : mkvmerge v7.0.0 ('Where We Going') 64bit built on Jun 9 2014 15:16:27
_STATISTICS_WRITING_DATE_UTC : 2014-06-21 11:27:28
_STATISTICS_TAGS : BPS DURATION NUMBER_OF_FRAMES NUMBER_OF_BYTES
Audio #2
ID : 2
Format : MPEG Audio
Format version : Version 1
Format profile : Layer 3
Codec ID : A_MPEG/L3
Codec ID/Hint : MP3
Duration : 2h 30mn
Bit rate mode : Constant
Bit rate : 128 Kbps
Channel count : 2 channels
Sampling rate : 44.1 KHz
Compression mode : Lossy
Stream size : 138 MiB (1%)
Title : Dub TS
Language : Russian
Default : Yes
Forced : No
Audio #3
ID : 3
Format : DTS
Format/Info : Digital Theater Systems
Mode : 16
Format settings, Endianness : Big
Codec ID : A_DTS
Duration : 2h 30mn
Bit rate mode : Constant
Bit rate : 1 509 Kbps
Channel count : 6 channels
Channel positions : Front: L C R, Side: L R, LFE
Sampling rate : 48.0 KHz
Bit depth : 24 bits
Compression mode : Lossy
Stream size : 1.59 GiB (13%)
Title : Original
Language : Indonesian
Default : No
Forced : No
Audio #4
ID : 4
Format : DTS
Format/Info : Digital Theater Systems
Mode : 16
Format settings, Endianness : Big
Codec ID : A_DTS
Duration : 2h 30mn
Bit rate mode : Constant
Bit rate : 1 509 Kbps
Channel count : 6 channels
Channel positions : Front: L C R, Side: L R, LFE
Sampling rate : 48.0 KHz
Bit depth : 24 bits
Compression mode : Lossy
Stream size : 1.59 GiB (13%)
Title : Dub
Language : English
Default : No
Forced : No
Text #5
ID : 5
Format : UTF-8
Codec ID : S_TEXT/UTF8
Codec ID/Info : UTF-8 Plain Text
Title : Forced
Language : English
Default : Yes
Forced : No
Menu
00:00:00.000 : en:00:00:00.000
00:08:02.315 : en:00:08:02.315
00:14:03.217 : en:00:14:03.217
00:21:08.893 : en:00:21:08.893
00:31:45.487 : en:00:31:45.487
00:42:22.123 : en:00:42:22.123
00:50:55.177 : en:00:50:55.177
01:01:58.423 : en:01:01:58.423
01:11:49.764 : en:01:11:49.764
01:24:47.165 : en:01:24:47.165
01:36:31.995 : en:01:36:31.995
01:44:18.752 : en:01:44:18.752
01:48:31.714 : en:01:48:31.714
01:57:20.283 : en:01:57:20.283
02:05:59.093 : en:02:05:59.093
02:20:02.894 : en:02:20:02.894
загрузка...
Правила, инструкции, FAQ!!!
Торрент  Добавлен [21 июн 2014, 20:44] Скачать торрент
Скачать торрент
[ Размер 31.35 КБ / Просмотров 17 ]

Статус
Проверен 
 
Размер  12.16 ГБ
Приватный: Нет (DHT включён)
.torrent скачан  0
Как залить торрент? | Как скачать Torrent? | Как смотреть и слушать онлайн?  


     Отправить личное сообщение
   
Страница 1 из 1
Показать сообщения за:  Поле сортировки  
Начать новую тему Ответить на тему

   Похожие торренты   Автор   Ответы   Просмотры   Последнее сообщение 
В этой теме нет новых непрочитанных сообщений. Рейд 2 / The Raid 2: Berandal (2014) HDRip | Чистый звук

в форуме Новинки кино, Размер: 1.46 ГБ, Здоровье: 100%

Anonymous

0
166|2

104
10

21 июн 2014, 13:29

Anonymous Перейти к последнему сообщению

В этой теме нет новых непрочитанных сообщений. Рейд 2 / The Raid 2: Berandal (2014) BDRip 720p | Лицензия

в форуме Новинки кино, Размер: 5.95 ГБ, Здоровье: 100%

Anonymous

1
69|2

110
54

05 авг 2014, 23:54

Bionik Перейти к последнему сообщению

В этой теме нет новых непрочитанных сообщений. Скачать торрент Рейд / The Raid: Redemption / Serbuan maut (2011) BDRip 720p | D | Лицензия

в форуме 720p | 1080p, Размер: 3.39 ГБ, Здоровье: 100%

Anonymous

0
91|1

60
1307

15 апр 2014, 22:58

Anonymous Перейти к последнему сообщению

В этой теме нет новых непрочитанных сообщений. Скачать торрент Проверен Рио 2 / Rio 2 (2014) BDRip 1080p | Чистый звук

в форуме 720p | 1080p, Размер: 8.19 ГБ, Здоровье: 0%

Anonymous

0
0|0

274
1

28 июн 2014, 21:28

Anonymous Перейти к последнему сообщению

В этой теме нет новых непрочитанных сообщений. Ной / Noah (2014) BDRip 1080p | Чистый звук

в форуме Новинки кино, Размер: 10.2 ГБ, Здоровье: 0%

Anonymous

0
0|0

282
1

07 июл 2014, 15:19

Anonymous Перейти к последнему сообщению



Сейчас этот форум просматривают: нет зарегистрированных пользователей и гости: 2


Вы не можете начинать темы
Вы не можете отвечать на сообщения
Вы не можете редактировать свои сообщения
Вы не можете удалять свои сообщения
Вы не можете добавлять вложения

Перейти:  

!ВНИМАНИЕ!
 Ресурс не предоставляет электронные версии произведений, а занимается лишь коллекционированием и каталогизацией ссылок, присылаемых и публикуемых на форуме нашими читателями. Если вы являетесь правообладателем какого-либо представленного материала и не желаете чтобы ссылка на него находилась в нашем каталоге, свяжитесь с нами и мы незамедлительно удалим её. Файлы для обмена на трекере предоставлены пользователями сайта, и администрация не несёт ответственности за их содержание. Просьба не заливать файлы, защищенные авторскими правами, а также файлы нелегального содержания!