На всех торрентах на трекере установлена скидка на скачивание в размере 100 процентов(а).
 Возможность скачивания торрента НЕ зависит от ограничений при низком ратио, низком аплоаде, требуемом ратио или требуемом аплоаде.


Начать новую тему Ответить на тему
Статистика раздачи
Размер: 11.17 ГБ | Добавлен: 27 янв 2013, 23:14 | Скачали: 0
Сидеров: 0  [0 байт/сек]    Личеров: 0  [0 байт/сек]
Пред. тема | След. тема 

Автор
Сообщение

СообщениеДобавлено: 27 янв 2013, 23:14 

Название: Контакт
Год выхода: 1997
Жанр: Фантастика, триллер, драма, детектив
Режиссер: Роберт Земекис

В ролях: Джоди Фостер, Мэттью МакКонахи, Джена Мэлоун, Дэвид Морс, Уильям Фихтнер, Джеффри Блейк, Том Скеррит, Джеймс Вудс, Джейк Бьюзи, Джон Хёрт
О фильме:
Радиоастроном доктор Элли Эрроуэй мечтала о звездах с детских лет, когда вместе с отцом занималась радиолюбительством и выходила на связь в эфир. Она рано потеряла родителей и думала, что они где-то далеко, в пространстве…
Однажды во время изучения «музыки сфер» она получила искусственный сигнал с Веги. По расшифрованным данным была построена установка для путешествия. Вокруг грандиозного проекта сгрудились не только энтузиасты, верящие в контакт, но и те, кто хотел помешать: скептики, представители ортодоксальных учений и террористы, уничтожившие первую установку. На другой Элли отправилась в неведомое…


Выпущено: США / Warner Bros. Pictures, South Side Amusement Company
Продолжительность: 02:29:40
Перевод: Дублированный, Aвторский (Ю. Живов)

Формат: mkv
Кодек: MPEG-4 AVC
Качество: BDRip 1080p
Видео: 1920x800, 23.976 fps, 8925 kbps
Звук:
Russian: AC3, 640 Kbps (6 ch) Дублированный (R5)
Russian: AC3, 448 Kbps (6 ch) Aвторский (Ю. Живов)
English: AC3, 640 kb/s (6 ch) Original
Субтитры: Russian, English


Общее
Уникальный идентификатор : 207322349133573948365881948046747692268 (0x9BF8D50029325D73B46F16589BD2ECEC)
Полное имя : Contact.1997.x264. BDRip.1080p.mkv
Формат : Matroska
Версия формата : Version 2
Размер файла : 11,2 Гбайт
Продолжительность : 2 ч. 29 м.
Общий поток : 10,7 Мбит/сек
Название фильма : ☭WIDDER☭
Дата кодирования : UTC 2013-01-27 17:08:53
Программа кодирования : mkvmerge v4.5.0 ('Speed of Light') сборка от Feb 1 2011 02:10:32
Библиотека кодирования : libebml v1.2.0 + libmatroska v1.1.0

Видео
Идентификатор : 1
Формат : AVC
Формат/Информация : Advanced Video Codec
Профиль формата : High@L4.1
Параметр CABAC формата : Да
Параметр ReFrames формата : 5 кадров
Идентификатор кодека : V_MPEG4/ISO/AVC
Продолжительность : 2 ч. 29 м.
Битрейт : 8925 Кбит/сек
Ширина : 1920 пикселей
Высота : 800 пикселей
Соотношение сторон : 2,40:1
Режим частоты кадров : Постоянный
Частота кадров : 23,976 кадра/сек
Цветовое пространство : YUV
Субдискретизация насыщенности : 4:2:0
Битовая глубина : 8 бит
Тип развёртки : Прогрессивная
Бит/(Пиксели*Кадры) : 0.242
Размер потока : 9,14 Гбайт (82%)
Заголовок : Контакт / Contact (1997)
Библиотека кодирования : x264 core 129 r2230 1cffe9f
Настройки программы : cabac=1 / ref=5 / deblock=1:-3:-3 / analyse=0x3:0x133 / me=umh / subme=11 / psy=1 / psy_rd=1.00:0.00 / mixed_ref=1 / me_range=48 / chroma_me=1 / trellis=2 / 8x8dct=1 / cqm=0 / deadzone=21,11 / fast_pskip=0 / chroma_qp_offset=-2 / threads=16 / lookahead_threads=2 / sliced_threads=0 / nr=0 / decimate=1 / interlaced=0 / bluray_compat=0 / constrained_intra=0 / bframes=6 / b_pyramid=2 / b_adapt=2 / b_bias=0 / direct=3 / weightb=1 / open_gop=0 / weightp=2 / keyint=240 / keyint_min=23 / scenecut=40 / intra_refresh=0 / rc=2pass / mbtree=0 / bitrate=8925 / ratetol=1.0 / qcomp=0.60 / qpmin=0 / qpmax=69 / qpstep=4 / cplxblur=20.0 / qblur=0.5 / ip_ratio=1.40 / pb_ratio=1.30 / aq=2:0.80
Язык : English
Default : Да
Forced : Нет

Аудио #1
Идентификатор : 2
Формат : AC-3
Формат/Информация : Audio Coding 3
Расширение режима : CM (complete main)
Параметр Endianness формата : Big
Идентификатор кодека : A_AC3
Продолжительность : 2 ч. 29 м.
Вид битрейта : Постоянный
Битрейт : 640 Кбит/сек
Каналы : 6 каналов
Расположение каналов : Front: L C R, Side: L R, LFE
Частота : 48,0 КГц
Битовая глубина : 16 бит
Метод сжатия : С потерями
Размер потока : 685 Мбайт (6%)
Заголовок : AC3, 640 Kbps (6 ch) Дублированный (R5)
Язык : Russian
Default : Да
Forced : Нет

Аудио #2
Идентификатор : 3
Формат : AC-3
Формат/Информация : Audio Coding 3
Расширение режима : CM (complete main)
Параметр Endianness формата : Big
Идентификатор кодека : A_AC3
Продолжительность : 2 ч. 29 м.
Вид битрейта : Постоянный
Битрейт : 448 Кбит/сек
Каналы : 6 каналов
Расположение каналов : Front: L C R, Side: L R, LFE
Частота : 48,0 КГц
Битовая глубина : 16 бит
Метод сжатия : С потерями
Размер потока : 480 Мбайт (4%)
Заголовок : AC3, 448 Kbps (6 ch) Aвторский (Ю. Живов)
Язык : Russian
Default : Нет
Forced : Нет

Аудио #3
Идентификатор : 4
Формат : AC-3
Формат/Информация : Audio Coding 3
Расширение режима : CM (complete main)
Параметр Endianness формата : Big
Идентификатор кодека : A_AC3
Продолжительность : 2 ч. 29 м.
Вид битрейта : Постоянный
Битрейт : 640 Кбит/сек
Каналы : 6 каналов
Расположение каналов : Front: L C R, Side: L R, LFE
Частота : 48,0 КГц
Битовая глубина : 16 бит
Метод сжатия : С потерями
Размер потока : 685 Мбайт (6%)
Заголовок : AC3, 640 kb/s (6 ch) Original
Язык : English
Default : Нет
Forced : Нет

Текст #1
Идентификатор : 5
Формат : PGS
Режим смешивания : zlib
Идентификатор кодека : S_HDMV/PGS
Идентификатор кодека/Информация : The same subtitle format used on BDs/HD-DVDs
Язык : Russian
Default : Нет
Forced : Нет

Текст #2
Идентификатор : 6
Формат : PGS
Режим смешивания : zlib
Идентификатор кодека : S_HDMV/PGS
Идентификатор кодека/Информация : The same subtitle format used on BDs/HD-DVDs
Язык : English
Default : Нет
Forced : Нет

Меню
00:00:00.000 : :Chapter 01
00:01:31.216 : :Chapter 02
00:02:19.681 : :Chapter 03
00:04:03.701 : :Chapter 04
00:05:56.272 : :Chapter 05
00:06:19.045 : :Chapter 06
00:09:48.337 : :Chapter 07
00:11:10.044 : :Chapter 08
00:15:30.512 : :Chapter 09
00:18:54.299 : :Chapter 10
00:21:22.698 : :Chapter 11
00:23:58.478 : :Chapter 12
00:34:00.079 : :Chapter 13
00:37:23.115 : :Chapter 14
00:39:46.008 : :Chapter 15
00:42:03.729 : :Chapter 16
00:45:39.820 : :Chapter 17
00:48:58.977 : :Chapter 18
00:51:33.882 : :Chapter 19
00:54:03.448 : :Chapter 20
01:01:04.369 : :Chapter 21
01:02:46.095 : :Chapter 22
01:05:13.701 : :Chapter 23
01:07:44.226 : :Chapter 24
01:09:55.024 : :Chapter 25
01:13:06.799 : :Chapter 26
01:18:29.329 : :Chapter 27
01:24:12.922 : :Chapter 28
01:26:14.085 : :Chapter 29
01:28:59.834 : :Chapter 30
01:31:54.592 : :Chapter 31
01:35:40.401 : :Chapter 32
01:40:39.074 : :Chapter 33
01:44:39.022 : :Chapter 34
01:49:20.804 : :Chapter 35
01:51:40.610 : :Chapter 36
01:55:10.570 : :Chapter 37
01:58:09.373 : :Chapter 38
01:59:53.853 : :Chapter 39
02:03:25.815 : :Chapter 40
02:06:17.194 : :Chapter 41
02:08:28.617 : :Chapter 42
02:09:16.540 : :Chapter 43
02:19:52.300 : :Chapter 44
____________________________________________
x264 [info]: frame I:1467 Avg QP:15.64 size:162676
x264 [info]: frame P:45077 Avg QP:17.94 size: 77220
x264 [info]: frame B:168780 Avg QP:20.26 size: 37293


загрузка...
Правила, инструкции, FAQ!!!
Торрент  Добавлен [27 янв 2013, 23:14] Скачать торрент
Скачать торрент
[ Размер 56.25 КБ / Просмотров 13 ]

Статус
Проверен 
 
Размер  11.17 ГБ
Приватный: Нет (DHT включён)
.torrent скачан  0
Как залить торрент? | Как скачать Torrent? | Как смотреть и слушать онлайн?  


     Отправить личное сообщение
   
Страница 1 из 1
Показать сообщения за:  Поле сортировки  
Начать новую тему Ответить на тему

   Похожие торренты   Автор   Ответы   Просмотры   Последнее сообщение 
В этой теме нет новых непрочитанных сообщений. Скачать торрент Проверен Беовульф в 3Д / Beowulf 3D (Роберт Земекис / Robert Zemeckis) [2007, Мультфильм, Фэнтези, Боевик, Драма, Приключения, BDrip, 1080p] OverUnder / Вертикальная стереопара

в форуме HD-Video в 3D, Размер: 9.18 ГБ, Здоровье: 100%

Anonymous

0
14|6

70
0

02 ноя 2014, 09:51

Anonymous Перейти к последнему сообщению

В этой теме нет новых непрочитанных сообщений. Скачать торрент Проверен Рождественская история 3Д / A Christmas Carol 3D (Роберт Земекис / Robert Zemeckis) [2009, фэнтези, драма, семейный, мультфильм, BDrip 1080p] OverUnder / Вертикальная стереопара

в форуме 3D Мультфильмы, Размер: 6.98 ГБ, Здоровье: 100%

Anonymous

0
2|1

7
0

07 сен 2016, 18:13

Anonymous Перейти к последнему сообщению

В этой теме нет новых непрочитанных сообщений. Скачать торрент Иллюзия полета / Flightplan (Роберт Швентке / Robert Schwentke) [1080p] [2005 г / Драма / Триллер / Детектив, Blu-RayRip]

в форуме 720p | 1080p, Размер: 8.21 ГБ, Здоровье: 0%

Anonymous

0
0|0

36
0

25 фев 2014, 22:39

Anonymous Перейти к последнему сообщению

В этой теме нет новых непрочитанных сообщений. Скачать торрент Проверен Контакт / Contact (1997) HDRip | D

в форуме Фантастика, Фэнтези, Размер: 1.45 ГБ, Здоровье: 100%

Гость

0
54|9

64
6

18 май 2015, 21:52

Гость Перейти к последнему сообщению

В этой теме нет новых непрочитанных сообщений. Скачать торрент Проверен Полярный Экспресс 3Д / The Polar Express 3D (Роберт Земекис / Роберт Земеки) [2004 г., Анимация, приключения, драма, семейный, фэнтези, BDRip-AVC] Anaglyph / Анаглиф

в форуме 3D Мультфильмы, Размер: 2.45 ГБ, Здоровье: 0%

Anonymous

0
0|0

7
0

07 сен 2016, 17:36

Anonymous Перейти к последнему сообщению



Сейчас этот форум просматривают: нет зарегистрированных пользователей и гости: 1


Вы не можете начинать темы
Вы не можете отвечать на сообщения
Вы не можете редактировать свои сообщения
Вы не можете удалять свои сообщения
Вы не можете добавлять вложения

Перейти:  

!ВНИМАНИЕ!
 Ресурс не предоставляет электронные версии произведений, а занимается лишь коллекционированием и каталогизацией ссылок, присылаемых и публикуемых на форуме нашими читателями. Если вы являетесь правообладателем какого-либо представленного материала и не желаете чтобы ссылка на него находилась в нашем каталоге, свяжитесь с нами и мы незамедлительно удалим её. Файлы для обмена на трекере предоставлены пользователями сайта, и администрация не несёт ответственности за их содержание. Просьба не заливать файлы, защищенные авторскими правами, а также файлы нелегального содержания!