На всех торрентах на трекере установлена скидка на скачивание в размере 100 процентов(а).
 Возможность скачивания торрента НЕ зависит от ограничений при низком ратио, низком аплоаде, требуемом ратио или требуемом аплоаде.


Начать новую тему Ответить на тему
Статистика раздачи
Размер: 7.2 ГБ | Добавлен: 10 июн 2014, 15:09 | Скачали: 35
Сидеров: 7  [0 байт/сек]    Личеров: 0  [0 байт/сек]
Пред. тема | След. тема 

Автор
Сообщение

СообщениеДобавлено: 10 июн 2014, 15:09 

Название: Дохлая рыба
Оригинальное название: Dead Fish
Год выпуска: 2005
Жанр: Боевик, триллер, драма, комедия
Режиссер: Чарли Стэдлер

В ролях: Роберт Карлайл, Гари Олдман, Анушка Болтон Ли, Кассандра Белл, Джон Пирсон, Кевин МакНэлли, Елена Анайя, Эндрю Ли Поттс, Иддо Голдберг, Джули Хили

Описание: Незадачливый слесарь Эйб запросто укрощает самые сложные замки, а вот в личной жизни и азартных играх он полный профан. Ему постоянно звонят на сотовый разъяренные кредиторы, а тут еще его подруга забеременела и сбежала от него. Эйб подозревает, что у него проблемы. Но что начнется, когда он случайно обменяется сотовыми с киллером Линчем, который получает заказы исключительно на свой телефон?! Для Эйба чужая награда за убийство — хороший способ подзаработать. Но как получить деньги и обойтись без трупов? Эта задачка покруче самого хитрого сейфа! Да и Линчу вряд ли понравится, что у него появился загадочный и непредсказуемый конкурент.



Выпущено: Великобритания, Германия / IMF Internationale Medien und Film GmbH & Co. 2. Produktions KG, Mobius International, Orange Pictures, SE8 Group
Продолжительность: 01:30:29
Перевод: Профессиональный двухголосый, авторский


Качество: BDRip 1080p
Видео: MPEG-4 AVC, 9600 Кбит/с, 1916x816, 25.000 кадр/с
Аудио #1: Русский (AC3,  6 ch, 448 Кбит/с) / Профессиональный двухголосый
Аудио #2: Русский (AC3,  6 ch, 448 Кбит/с) / Авторский одноголосый (Карповский)
Аудио #3: Русский (AC3,  6 ch, 448 Кбит/с) / Авторский одноголосый (Завгородний)
Аудио #4: Английский (AC3, 2 ch, 448 Кбит/с)
Субтитры: Русские, английские

Семпл




За исходный блюр, спасибо: BlueBird
Внимание! В авторских переводах присутствует ненормативная лексика.
x264 [info]: frame I:955 Avg QP:16.07 size:184355
x264 [info]: frame P:28586 Avg QP:18.54 size: 88307
x264 [info]: frame B:106205 Avg QP:20.33 size: 35902
x264 [info]: consecutive B-frames: 1.8% 2.3% 8.0% 15.2% 14.5% 51.8% 3.8% 0.4% 2.2%
****************************************************************************************************
Общее
Уникальный идентификатор : 250914236077360671992947674099769514880 (0xBCC452F67A2A3252AA0BB620F8799B80)
Полное имя : D:Mои раздачиDead.Fish.2005.BDRip.1080p-MediaClub.mkv
Формат : Matroska
Версия формата : Version 4 / Version 2
Размер файла : 7,20 Гбайт
Продолжительность : 1 ч. 30 м.
Общий поток : 11,4 Мбит/сек
Название фильма : -=MediaClub-kaspr=-
Дата кодирования : UTC 2014-06-10 05:03:44
Программа кодирования : mkvmerge v6.9.1 ('Blue Panther') 64bit built on Apr 18 2014 18:23:38
Библиотека кодирования : libebml v1.3.0 + libmatroska v1.4.1

Видео
Идентификатор : 1
Формат : AVC
Формат/Информация : Advanced Video Codec
Профиль формата : High@L4.1
Параметр CABAC формата : Да
Параметр ReFrames формата : 5 кадров
Идентификатор кодека : V_MPEG4/ISO/AVC
Продолжительность : 1 ч. 30 м.
Битрейт : 9600 Кбит/сек
Ширина : 1916 пикселей
Высота : 816 пикселей
Соотношение сторон : 2,35:1
Режим частоты кадров : Постоянный
Частота кадров : 25,000 кадров/сек
Цветовое пространство : YUV
Субдискретизация насыщенности : 4:2:0
Битовая глубина : 8 бит
Тип развёртки : Прогрессивная
Бит/(Пиксели*Кадры) : 0.246
Размер потока : 5,92 Гбайт (82%)
Заголовок : -=MediaClub-kaspr=-
Библиотека кодирования : x264 core 142 r2431+42 c69a006 tMod [8-bit@4:2:0 X86_64]
Настройки программы : cabac=1 / ref=5 / deblock=1:-3:-3 / analyse=0x3:0x113 / me=umh / subme=11 / psy=1 / fade_compensate=0.00 / psy_rd=1.00:0.20 / mixed_ref=1 / me_range=32 / chroma_me=1 / trellis=2 / 8x8dct=1 / cqm=0 / deadzone=21,11 / fast_pskip=0 / chroma_qp_offset=-3 / threads=12 / lookahead_threads=2 / sliced_threads=0 / nr=0 / decimate=0 / interlaced=0 / bluray_compat=0 / constrained_intra=0 / fgo=0 / bframes=8 / b_pyramid=2 / b_adapt=2 / b_bias=0 / direct=3 / weightb=1 / open_gop=0 / weightp=2 / keyint=250 / keyint_min=25 / scenecut=40 / intra_refresh=0 / rc=2pass / mbtree=0 / bitrate=9600 / ratetol=1.0 / qcomp=0.60 / qpmin=0:0:0 / qpmax=69:69:69 / qpstep=4 / cplxblur=20.0 / qblur=0.5 / ip_ratio=1.40 / pb_ratio=1.30 / aq=4:0.80 / aq-sensitivity=10.00 / aq-factor=1.00:1.00:1.00 / aq2=0 / aq3=0
Default : Да
Forced : Да

Аудио #1
Идентификатор : 2
Формат : AC-3
Формат/Информация : Audio Coding 3
Расширение режима : CM (complete main)
Параметр Endianness формата : Big
Идентификатор кодека : A_AC3
Продолжительность : 1 ч. 30 м.
Вид битрейта : Постоянный
Битрейт : 448 Кбит/сек
Каналы : 6 каналов
Расположение каналов : Front: L C R, Side: L R, LFE
Частота : 48,0 КГц
Битовая глубина : 16 бит
Метод сжатия : С потерями
Размер потока : 290 Мбайт (4%)
Заголовок : DVO
Язык : Russian
Default : Да
Forced : Да

Аудио #2
Идентификатор : 3
Формат : AC-3
Формат/Информация : Audio Coding 3
Расширение режима : CM (complete main)
Параметр Endianness формата : Big
Идентификатор кодека : A_AC3
Продолжительность : 1 ч. 30 м.
Вид битрейта : Постоянный
Битрейт : 448 Кбит/сек
Каналы : 6 каналов
Расположение каналов : Front: L C R, Side: L R, LFE
Частота : 48,0 КГц
Битовая глубина : 16 бит
Метод сжатия : С потерями
Размер потока : 290 Мбайт (4%)
Заголовок : Карповский
Язык : Russian
Default : Нет
Forced : Нет

Аудио #3
Идентификатор : 4
Формат : AC-3
Формат/Информация : Audio Coding 3
Расширение режима : CM (complete main)
Параметр Endianness формата : Big
Идентификатор кодека : A_AC3
Продолжительность : 1 ч. 30 м.
Вид битрейта : Постоянный
Битрейт : 448 Кбит/сек
Каналы : 6 каналов
Расположение каналов : Front: L C R, Side: L R, LFE
Частота : 48,0 КГц
Битовая глубина : 16 бит
Метод сжатия : С потерями
Размер потока : 290 Мбайт (4%)
Заголовок : Завгородний
Язык : Russian
Default : Нет
Forced : Нет

Аудио #4
Идентификатор : 5
Формат : AC-3
Формат/Информация : Audio Coding 3
Расширение режима : CM (complete main)
Параметр Endianness формата : Big
Идентификатор кодека : A_AC3
Продолжительность : 1 ч. 30 м.
Вид битрейта : Постоянный
Битрейт : 448 Кбит/сек
Каналы : 2 канала
Расположение каналов : Front: L R
Частота : 48,0 КГц
Битовая глубина : 16 бит
Метод сжатия : С потерями
Размер потока : 290 Мбайт (4%)
Язык : English
Default : Нет
Forced : Нет

Текст #1
Идентификатор : 6
Формат : UTF-8
Идентификатор кодека : S_TEXT/UTF8
Идентификатор кодека/Информация : UTF-8 Plain Text
Язык : Russian
Default : Нет
Forced : Нет

Текст #2
Идентификатор : 7
Формат : UTF-8
Идентификатор кодека : S_TEXT/UTF8
Идентификатор кодека/Информация : UTF-8 Plain Text
Язык : English
Default : Нет
Forced : Нет

Меню
00:00:00.000 : en:Chapter 01
00:07:04.880 : en:Chapter 02
00:14:58.000 : en:Chapter 03
00:24:25.720 : en:Chapter 04
00:31:40.399 : en:Chapter 05
00:38:50.840 : en:Chapter 06
00:44:03.040 : en:Chapter 07
00:52:32.439 : en:Chapter 08
00:58:47.080 : en:Chapter 09
01:05:15.240 : en:Chapter 10
01:10:06.360 : en:Chapter 11
01:16:43.879 : en:Chapter 12
01:26:51.080 : en:Chapter 13


Релиз: |
загрузка...
Правила, инструкции, FAQ!!!
Торрент  Добавлен [10 июн 2014, 15:09] Скачать торрент
Скачать торрент
[ Размер 18.62 КБ / Просмотров 8 ]

Статус
Проверен 
 
Размер  7.2 ГБ
Приватный: Нет (DHT включён)
.torrent скачан  35
Как залить торрент? | Как скачать Torrent? | Как смотреть и слушать онлайн?  


     Отправить личное сообщение
   
Страница 1 из 1
Показать сообщения за:  Поле сортировки  
Начать новую тему Ответить на тему

   Похожие торренты   Автор   Ответы   Просмотры   Последнее сообщение 
В этой теме нет новых непрочитанных сообщений. Скачать торрент Проверен Даниел Уоллес / Daniel Wallace - Крупная рыба / Big Fish [2004, DOC]

в форуме Зарубежная литература (XX и XXI век), Размер: 520 КБ, Здоровье: 0%

Anonymous

0
0|0

1
0

08 сен 2016, 18:31

Anonymous Перейти к последнему сообщению

В этой теме нет новых непрочитанных сообщений. Скачать торрент Проверен [iPhone] Большая рыба / Big fish (Тим Бертон) [2003 г., фантастическая трагикомедия, DVDRip]

в форуме Фильмы для iPod, iPhone, iPad, Размер: 1.39 ГБ, Здоровье: 100%

Anonymous

0
7|2

30
0

11 май 2015, 01:41

Anonymous Перейти к последнему сообщению

В этой теме нет новых непрочитанных сообщений. Скачать торрент Проверен Leslie Forbes / Лесли Форбс - Fish, blood, bones / Рыба, кровь, кости [2008, TXT, DOC, RUS]

в форуме Детективы и Боевики, Размер: 5.08 МБ, Здоровье: 0%

Anonymous

0
0|0

4
0

08 сен 2016, 21:10

Anonymous Перейти к последнему сообщению

В этой теме нет новых непрочитанных сообщений. Скачать торрент Проверен День мертвецов / Day of the Dead (1985) BDRip 1080p | P

в форуме 720p | 1080p, Размер: 7.75 ГБ, Здоровье: 100%

Гость

0
65|60

59
53

08 июл 2015, 20:14

Гость Перейти к последнему сообщению

В этой теме нет новых непрочитанных сообщений. Скачать торрент Ни жив, ни мёртв / Half Past Dead (2002) BDRip 1080p | D, P

в форуме 720p | 1080p, Размер: 11.03 ГБ, Здоровье: 0%

Anonymous

0
0|0

21
0

03 янв 2014, 16:33

Anonymous Перейти к последнему сообщению



Сейчас этот форум просматривают: нет зарегистрированных пользователей и гости: 1


Вы не можете начинать темы
Вы не можете отвечать на сообщения
Вы не можете редактировать свои сообщения
Вы не можете удалять свои сообщения
Вы не можете добавлять вложения

Перейти:  

!ВНИМАНИЕ!
 Ресурс не предоставляет электронные версии произведений, а занимается лишь коллекционированием и каталогизацией ссылок, присылаемых и публикуемых на форуме нашими читателями. Если вы являетесь правообладателем какого-либо представленного материала и не желаете чтобы ссылка на него находилась в нашем каталоге, свяжитесь с нами и мы незамедлительно удалим её. Файлы для обмена на трекере предоставлены пользователями сайта, и администрация не несёт ответственности за их содержание. Просьба не заливать файлы, защищенные авторскими правами, а также файлы нелегального содержания!