На всех торрентах на трекере установлена скидка на скачивание в размере 100 процентов(а).
 Возможность скачивания торрента НЕ зависит от ограничений при низком ратио, низком аплоаде, требуемом ратио или требуемом аплоаде.


Начать новую тему Ответить на тему
Статистика раздачи
Размер: 4.41 ГБ | Добавлен: 10 июн 2014, 15:01 | Скачали: 149
Сидеров: 13  [0 байт/сек]    Личеров: 0  [0 байт/сек]
Пред. тема | След. тема 

Автор
Сообщение

СообщениеДобавлено: 10 июн 2014, 15:01 

Название: Дом Хемингуэй
Оригинальное название: Dom Hemingway
Год выхода: 2013
Жанр: драма, комедия, криминал
Режиссер: Ричард Шепард

В ролях: Джуд Лоу, Ричард Э. Грант, Демиан Бишир, Эмилия Кларк, Лука Франзони, Ричард Грэхэм, Джордж Суини, Марк Уингетт, Дэвид Бокэм, Ник Раггетт

О фильме:
Дом Хемингуэй — самовлюбленный циник, сумевший обеспечить себе репутацию гениального медвежатника в криминальном мире. После очередного дела он угодил за решетку, где провел целых двенадцать лет. Выйдя на свободу, Дом решил как следует развлечься, а после забрать причитающиеся ему деньги за молчание. Однако вскоре он понял, что за время, проведенное за решеткой, очень многое пропустил в своей жизни: не побывал на похоронах самого близкого человека, не видел, как выросла его дочь, и как родился его маленький внук. Он решил попробовать хоть как-то вернуть упущенное время и попытаться восстановить отношения со своей дочерью...



Выпущено: Великобритания
Продолжительность: 01:33:21
Озвучивание:
Профессиональное (многоголосое) [online movies]
Любительское (двухголосое) [Студия "Paradox"]
Любительское (одноголосое) [qwerty]


Формат: MKV
Качество: BDRip 720p [TayTO]
Видео: 4503 kb/s, 1280x544
Аудио:
Russian [online movies] / [Студия "Paradox"] / [qwerty]: AC3, 448 kb/s (6 ch)
English: DTS, 768 kb/s (6 ch)
Субтитры: Russian [notabenoid ], English
Дополнительно: Сохранены оригинальные чаптеры как на Blu-Ray

Скачать: Сэмпл

Релиз группы:




General
Dom.Hemingway.2013.Blu.Ray.720p.CINEMANIA.mkv
Format : Matroska
Format version : Version 4 / Version 2
File size : 4.41 GiB
Duration : 1h 33mn
Overall bit rate : 6 732 Kbps
Movie name : Release Group CINEMANIA
Encoded date : UTC 2014-06-10 08:35:02
Writing application : mkvmerge v7.0.0 ('Where We Going') 64bit built on Jun 9 2014 15:16:27
Writing library : libebml v1.3.0 + libmatroska v1.4.1

Video
ID : 1
Format : AVC
Format/Info : Advanced Video Codec
Format profile : High@L4.1
Format settings, CABAC : Yes
Format settings, ReFrames : 12 frames
Codec ID : V_MPEG4/ISO/AVC
Duration : 1h 33mn
Bit rate : 4 486 Kbps
Width : 1 280 pixels
Height : 544 pixels
Display aspect ratio : 2.35:1
Frame rate mode : Constant
Frame rate : 24.000 fps
Color space : YUV
Chroma subsampling : 4:2:0
Bit depth : 8 bits
Scan type : Progressive
Bits/(Pixel*Frame) : 0.268
Stream size : 2.94 GiB (67%)
Title : Release Group CINEMANIA
Writing library : x264 core 135 r2345 f0c1c53
Encoding settings : cabac=1 / ref=12 / deblock=1:-3:-3 / analyse=0x3:0x133 / me=tesa / subme=10 / psy=1 / psy_rd=1.00:0.00 / mixed_ref=1 / me_range=16 / chroma_me=1 / trellis=2 / 8x8dct=1 / cqm=0 / deadzone=21,11 / fast_pskip=0 / chroma_qp_offset=-2 / threads=12 / lookahead_threads=2 / sliced_threads=0 / nr=0 / decimate=1 / interlaced=0 / bluray_compat=0 / constrained_intra=0 / bframes=9 / b_pyramid=2 / b_adapt=2 / b_bias=0 / direct=3 / weightb=1 / open_gop=0 / weightp=2 / keyint=250 / keyint_min=24 / scenecut=40 / intra_refresh=0 / rc=crf / mbtree=0 / crf=16.3 / qcomp=0.75 / qpmin=0 / qpmax=69 / qpstep=4 / ip_ratio=1.40 / pb_ratio=1.30 / aq=1:0.65
Language : English
Default : Yes
Forced : No
Matrix coefficients : BT.709

Audio #1
ID : 2
Format : AC-3
Format/Info : Audio Coding 3
Mode extension : CM (complete main)
Format settings, Endianness : Big
Codec ID : A_AC3
Duration : 1h 33mn
Bit rate mode : Constant
Bit rate : 448 Kbps
Channel(s) : 6 channels
Channel positions : Front: L C R, Side: L R, LFE
Sampling rate : 48.0 KHz
Bit depth : 16 bits
Compression mode : Lossy
Stream size : 301 MiB (7%)
Title : online movies
Language : Russian
Default : Yes
Forced : Yes

Audio #2
ID : 3
Format : AC-3
Format/Info : Audio Coding 3
Mode extension : CM (complete main)
Format settings, Endianness : Big
Codec ID : A_AC3
Duration : 1h 33mn
Bit rate mode : Constant
Bit rate : 448 Kbps
Channel(s) : 6 channels
Channel positions : Front: L C R, Side: L R, LFE
Sampling rate : 48.0 KHz
Bit depth : 16 bits
Compression mode : Lossy
Stream size : 301 MiB (7%)
Title : Студия "Paradox"
Language : Russian
Default : No
Forced : No

Audio #3
ID : 4
Format : AC-3
Format/Info : Audio Coding 3
Mode extension : CM (complete main)
Format settings, Endianness : Big
Codec ID : A_AC3
Duration : 1h 33mn
Bit rate mode : Constant
Bit rate : 448 Kbps
Channel(s) : 6 channels
Channel positions : Front: L C R, Side: L R, LFE
Sampling rate : 48.0 KHz
Bit depth : 16 bits
Compression mode : Lossy
Stream size : 301 MiB (7%)
Title : qwerty
Language : Russian
Default : No
Forced : No

Audio #4
ID : 5
Format : DTS
Format/Info : Digital Theater Systems
Mode : 16
Format settings, Endianness : Big
Codec ID : A_DTS
Duration : 1h 33mn
Bit rate mode : Constant
Bit rate : 768 Kbps
Channel(s) : 6 channels
Channel positions : Front: L C R, Side: L R, LFE
Sampling rate : 48.0 KHz
Bit depth : 24 bits
Compression mode : Lossy
Stream size : 515 MiB (11%)
Language : English
Default : No
Forced : No

Text #1
ID : 6
Format : UTF-8
Codec ID : S_TEXT/UTF8
Codec ID/Info : UTF-8 Plain Text
Title : notabenoid
Language : Russian
Default : No
Forced : No

Text #2
ID : 7
Format : UTF-8
Codec ID : S_TEXT/UTF8
Codec ID/Info : UTF-8 Plain Text
Language : English
Default : No
Forced : No

Menu
00:00:00.000 : en:00:00:00.000
00:09:03.000 : en:00:09:03.000
00:18:11.083 : en:00:18:11.083
00:25:12.000 : en:00:25:12.000
00:33:03.917 : en:00:33:03.917
00:40:41.667 : en:00:40:41.667
00:49:16.000 : en:00:49:16.000
00:57:46.167 : en:00:57:46.167
01:05:01.500 : en:01:05:01.500
01:14:03.292 : en:01:14:03.292
01:18:30.250 : en:01:18:30.250
01:24:48.958 : en:01:24:48.958
загрузка...
Правила, инструкции, FAQ!!!
Торрент  Добавлен [10 июн 2014, 15:01] Скачать торрент
Скачать торрент
[ Размер 22.61 КБ / Просмотров 6 ]

Статус
Проверен 
 
Размер  4.41 ГБ
Приватный: Нет (DHT включён)
.torrent скачан  149
Как залить торрент? | Как скачать Torrent? | Как смотреть и слушать онлайн?  


     Отправить личное сообщение
   
Страница 1 из 1
Показать сообщения за:  Поле сортировки  
Начать новую тему Ответить на тему

   Похожие торренты   Автор   Ответы   Просмотры   Последнее сообщение 
В этой теме нет новых непрочитанных сообщений. Скачать торрент Проверен Хемингуэй и Геллхорн / Hemingway & Gellhorn (2012) BDRip 720p | P, P2

в форуме 720p | 1080p, Размер: 8.58 ГБ, Здоровье: 100%

Anonymous

0
6|0

35
11

21 май 2014, 16:42

Anonymous Перейти к последнему сообщению

В этой теме нет новых непрочитанных сообщений. Скачать торрент Проверен Дом Хемингуэй / Dom Hemingway (2013) BDRip 1080p | P, L2, L1

в форуме 720p | 1080p, Размер: 9.6 ГБ, Здоровье: 100%

Anonymous

0
28|0

118
3085

10 июн 2014, 15:04

Anonymous Перейти к последнему сообщению

В этой теме нет новых непрочитанных сообщений. Скачать торрент Проверен Дом Хемингуэй / Dom Hemingway (2013) HDRip | P

в форуме Драмы, Мелодрамы, Размер: 1.36 ГБ, Здоровье: 100%

Anonymous

0
55|1

79
433

10 июн 2014, 14:54

Anonymous Перейти к последнему сообщению

В этой теме нет новых непрочитанных сообщений. Скачать торрент Проверен Хемингуэй и Геллхорн / Hemingway & Gellhorn (2012) HDRip | P

в форуме Драмы, Мелодрамы, Размер: 2.04 ГБ, Здоровье: 100%

Anonymous

0
22|0

35
99

21 май 2014, 16:37

Anonymous Перейти к последнему сообщению

В этой теме нет новых непрочитанных сообщений. Скачать торрент Проверен Hemingway Ernest / Хемингуэй Эрнест - Избранное [1987, PDF/DjVu, RUS]

в форуме Зарубежная литература (XX и XXI век), Размер: 26.43 МБ, Здоровье: 0%

Anonymous

0
0|0

5
0

08 сен 2016, 19:05

Anonymous Перейти к последнему сообщению



Сейчас этот форум просматривают: нет зарегистрированных пользователей и гости: 4


Вы не можете начинать темы
Вы не можете отвечать на сообщения
Вы не можете редактировать свои сообщения
Вы не можете удалять свои сообщения
Вы не можете добавлять вложения

Перейти:  

!ВНИМАНИЕ!
 Ресурс не предоставляет электронные версии произведений, а занимается лишь коллекционированием и каталогизацией ссылок, присылаемых и публикуемых на форуме нашими читателями. Если вы являетесь правообладателем какого-либо представленного материала и не желаете чтобы ссылка на него находилась в нашем каталоге, свяжитесь с нами и мы незамедлительно удалим её. Файлы для обмена на трекере предоставлены пользователями сайта, и администрация не несёт ответственности за их содержание. Просьба не заливать файлы, защищенные авторскими правами, а также файлы нелегального содержания!