На всех торрентах на трекере установлена скидка на скачивание в размере 100 процентов(а).
 Возможность скачивания торрента НЕ зависит от ограничений при низком ратио, низком аплоаде, требуемом ратио или требуемом аплоаде.


Начать новую тему Ответить на тему
Статистика раздачи
Размер: 7.95 ГБ | Добавлен: 23 янв 2013, 11:34 | Скачали: 128
Сидеров: 13  [0 байт/сек]    Личеров: 8  [0 байт/сек]
Пред. тема | След. тема 

Автор
Сообщение

СообщениеДобавлено: 23 янв 2013, 11:34 

Год выпуска: 1991
Страна: США
Жанр: боевик, триллер, комедия, криминал, детектив
Продолжительность: 01:45:25
Перевод: Профессиональный дублированный

Режиссер: Тони Скотт / Tony Scott

В ролях: Брюс Уиллис, Дэймон Уайанс, Челси Филд, Ноубл Уиллингэм, Тейлор Негрон, Даниэль Харрис, Холли Берри, Брюс МакГилл, Баджа Джола, Ким Коутс

Описание: Джо был американским героем - человеком, спасшим президента, а теперь он частный детектив, проснувшийся после очередной попойки в своей старенькой машине с больной головой и семейными проблемами. Весьма кстати подворачивается непыльная работенка - охрана звезды захудалого стриптиз-клуба. Однако события выходят из-под контроля - сначала убивают его друга, а потом и стриптизершу, которую Джо должен охранять. Ее парень Джимми Дикс - футболист, списанный из-за наркотиков, не меньше Джо хочет разобраться в этом деле, тем более что прямо перед смертью она обещала ему подарок ко дню рождения - возвращение в большой спорт.



Лицам до 17 лет обязательно присутствие взрослого



Качество: BDRip
Контейнер: MKV
Видео: AVC, 1920x800 (2.40:1), 9965 kbps, 23,976 fps, 0,271 bpp
Аудио №1: русский /; AC3 /; 5.1 /; 48 kHz /; 384 kbps /; 16 bit; |Дубляж|
Аудио №2: английский /; AC3 /; 5.1 /; 48 kHz /; 448 kbps /; 16 bit
Субтитры русские(х3), английские
Навигация по главам: есть


General
Unique ID : 184894619648422476474358838986040796942 (0x8B1968906BED2BA787082E6D5D2DE70E)
Complete name : E:The Last Boy Scout(1991)1080p.F-HD.mkv
Format : Matroska
Format version : Version 4 / Version 2
File size : 7.95 GiB
Duration : 1h 45mn
Overall bit rate : 10.8 Mbps
Encoded date : UTC 2013-01-23 04:29:45
Writing application : mkvmerge v6.0.0 ('Coming Up For Air') built on Jan 20 2013 09:52:00
Writing library : libebml v1.3.0 + libmatroska v1.4.0

Video
ID : 1
Format : AVC
Format/Info : Advanced Video Codec
Format profile : High@L4.1
Format settings, CABAC : Yes
Format settings, ReFrames : 5 frames
Codec ID : V_MPEG4/ISO/AVC
Duration : 1h 45mn
Bit rate : 9 965 Kbps
Width : 1 920 pixels
Height : 800 pixels
Display aspect ratio : 2.40:1
Frame rate : 23.976 fps
Color space : YUV
Chroma subsampling : 4:2:0
Bit depth : 8 bits
Scan type : Progressive
Bits/(Pixel*Frame) : 0.271
Stream size : 7.18 GiB (90%)
Writing library : x264 core 129 r2230 1cffe9f
Encoding settings : cabac=1 / ref=5 / deblock=1:-3:-3 / analyse=0x3:0x113 / me=umh / subme=10 / psy=1 / psy_rd=1.00:0.04 / mixed_ref=1 / me_range=32 / chroma_me=1 / trellis=2 / 8x8dct=1 / cqm=0 / deadzone=21,11 / fast_pskip=0 / chroma_qp_offset=-3 / threads=6 / lookahead_threads=1 / sliced_threads=0 / nr=0 / decimate=1 / interlaced=0 / bluray_compat=0 / constrained_intra=0 / bframes=10 / b_pyramid=2 / b_adapt=2 / b_bias=0 / direct=3 / weightb=1 / open_gop=0 / weightp=2 / keyint=240 / keyint_min=23 / scenecut=40 / intra_refresh=0 / rc=2pass / mbtree=0 / bitrate=9965 / ratetol=1.0 / qcomp=0.70 / qpmin=10 / qpmax=51 / qpstep=4 / cplxblur=20.0 / qblur=0.5 / ip_ratio=1.40 / pb_ratio=1.30 / aq=2:0.90
Language : English
Default : Yes
Forced : No
Color primaries : BT.709-5, BT.1361, IEC 61966-2-4, SMPTE RP177
Transfer characteristics : BT.709-5, BT.1361
Matrix coefficients : BT.709-5, BT.1361, IEC 61966-2-4 709, SMPTE RP177

Audio #1
ID : 2
Format : AC-3
Format/Info : Audio Coding 3
Mode extension : CM (complete main)
Codec ID : A_AC3
Duration : 1h 45mn
Bit rate mode : Constant
Bit rate : 384 Kbps
Channel(s) : 6 channels
Channel positions : Front: L C R, Side: L R, LFE
Sampling rate : 48.0 KHz
Bit depth : 16 bits
Compression mode : Lossy
Stream size : 290 MiB (4%)
Title : Дубляж
Language : Russian
Default : Yes
Forced : No

Audio #2
ID : 3
Format : AC-3
Format/Info : Audio Coding 3
Mode extension : CM (complete main)
Codec ID : A_AC3
Duration : 1h 45mn
Bit rate mode : Constant
Bit rate : 448 Kbps
Channel(s) : 6 channels
Channel positions : Front: L C R, Side: L R, LFE
Sampling rate : 48.0 KHz
Bit depth : 16 bits
Compression mode : Lossy
Stream size : 338 MiB (4%)
Language : English
Default : No
Forced : No

Text #1
ID : 4
Format : UTF-8
Codec ID : S_TEXT/UTF8
Codec ID/Info : UTF-8 Plain Text
Language : Russian
Default : No
Forced : No

Text #2
ID : 5
Format : UTF-8
Codec ID : S_TEXT/UTF8
Codec ID/Info : UTF-8 Plain Text
Language : Russian
Default : No
Forced : No

Text #3
ID : 6
Format : UTF-8
Codec ID : S_TEXT/UTF8
Codec ID/Info : UTF-8 Plain Text
Language : Russian
Default : No
Forced : No

Text #4
ID : 7
Format : UTF-8
Codec ID : S_TEXT/UTF8
Codec ID/Info : UTF-8 Plain Text
Language : English
Default : No
Forced : No

Menu
00:00:00.000 : en:Credits (Friday Night's A Great Night for Football)
00:03:00.471 : en:The Game of Billy Cole's Life
00:07:28.905 : en:Rude Awakening
00:10:59.657 : en:Delivering a Pass
00:12:24.492 : en:The Guy in the Closet
00:16:45.129 : en:Kaboom!
00:19:54.776 : en:Wasted Youth
00:25:16.431 : en:Joking Out of a Jam
00:29:32.479 : en:Street Ambush
00:31:48.448 : en:The Baynard Incident
00:35:08.981 : en:Breaking the Ice
00:39:31.702 : en:A Hell of a Factory Recall
00:46:17.649 : en:Danger and Cornelius Ride Home
00:48:36.455 : en:His Winning Personality
00:51:59.366 : en:The Game of Jimmy Dix's Life
00:55:28.074 : en:Jimmy's Anguish
00:58:37.930 : en:Roughing Up the Million-Dollar Arm
01:00:55.318 : en:Schocking Intruders
01:02:39.921 : en:Marcone's House
01:06:41.789 : en:Police Headquarters
01:08:17.927 : en:Marcone's Scheme
01:10:06.035 : en:Nancy Drew on the Case
01:17:05.412 : en:Going Really Fast
01:20:06.176 : en:Jamming in Traffic
01:24:10.336 : en:The Coliseum
01:31:38.451 : en:Lights Above, Field Below
01:34:27.036 : en:Milo Meets His Match
01:36:32.703 : en:Terms of Endearment
01:40:09.461 : en:Be Prepared; End Credits (Moody River and Friday Night's A Great Night for Football)
В одной из сцен Джо (Брюс Уиллис) говорит о пицце с козьим сыром. Точно такую же пиццу упоминает персонаж Брюса Уиллиса в «Гудзонском ястребе» (1991).
Дариан смотрит по телевизору «Смертельное оружие» (1987), сценарий к которому также написал Шэйн Блэк.
Шэйн Блэк стал первым сценаристом, получившим $1 млн. за сценарий.
Композитору Майклу Кеймену очень не понравился фильм, но будучи хорошим другом Брюса Уиллиса и Джоэля Силвера, он согласился написать музыку к картине.
Пистолет, который Джо забирает у сутенера, - «Desert Eagle in .357 Magnum».
Машина Джо - «Buick ’Boat tail’ Riviera» модель 1971 года.
В первой версии сценария действие в последней трети фильма должно было происходить на воде. Главными злодеями должными были стать сенатор Бэйнард и его сын Луис, которые погибали в концовке фильма.
Слово «fuck» произносится по ходу действия фильма 102 раза.






Приятного просмотра, фильм отличный!
загрузка...
Правила, инструкции, FAQ!!!
Торрент  Добавлен [23 янв 2013, 11:34] Скачать торрент
Скачать торрент
[ Размер 40.21 КБ / Просмотров 5 ]

Статус
Проверен 
 
Размер  7.95 ГБ
Приватный: Нет (DHT включён)
.torrent скачан  128
Как залить торрент? | Как скачать Torrent? | Как смотреть и слушать онлайн?  


     Отправить личное сообщение
   
Страница 1 из 1
Показать сообщения за:  Поле сортировки  
Начать новую тему Ответить на тему

   Похожие торренты   Автор   Ответы   Просмотры   Последнее сообщение 
В этой теме нет новых непрочитанных сообщений. Скачать торрент Проверен Последний рубеж / Homefront (2013) BDRip 1080p | D | Лицензия

в форуме 720p | 1080p, Размер: 8.71 ГБ, Здоровье: 100%

Anonymous

0
64|3

47
212

26 май 2014, 07:16

Anonymous Перейти к последнему сообщению

В этой теме нет новых непрочитанных сообщений. Скачать торрент Проверен Индиана Джонс и последний крестовый поход / Indiana Jones and the Last Crusade (1989) BDRip 1080p

в форуме 720p | 1080p, Размер: 7.95 ГБ, Здоровье: 100%

Гость

0
50|14

12
165

26 авг 2016, 07:46

Гость Перейти к последнему сообщению

В этой теме нет новых непрочитанных сообщений. Скачать торрент Проверен Дорз / The Doors (1991) BDRip [1080p]

в форуме Концерты (HD-Video), Размер: 12.71 ГБ, Здоровье: 100%

Anonymous

0
25|1

121
6

09 авг 2014, 21:03

Anonymous Перейти к последнему сообщению

В этой теме нет новых непрочитанных сообщений. Скачать торрент Проверен Ракетчик / The Rocketeer (1991) BDRip 1080p | P2, A

в форуме 720p | 1080p, Размер: 7.76 ГБ, Здоровье: 91%

Гость

0
68|74

37
88

24 ноя 2014, 23:43

Гость Перейти к последнему сообщению

В этой теме нет новых непрочитанных сообщений. Скачать торрент Проверен Гудзонский ястреб / Hudson Hawk (1991) BDRip 1080p | D, P, A

в форуме 720p | 1080p, Размер: 11.01 ГБ, Здоровье: 100%

Гость

0
34|1

39
258

10 фев 2015, 18:23

Гость Перейти к последнему сообщению



Сейчас этот форум просматривают: нет зарегистрированных пользователей и гости: 4


Вы не можете начинать темы
Вы не можете отвечать на сообщения
Вы не можете редактировать свои сообщения
Вы не можете удалять свои сообщения
Вы не можете добавлять вложения

Перейти:  

!ВНИМАНИЕ!
 Ресурс не предоставляет электронные версии произведений, а занимается лишь коллекционированием и каталогизацией ссылок, присылаемых и публикуемых на форуме нашими читателями. Если вы являетесь правообладателем какого-либо представленного материала и не желаете чтобы ссылка на него находилась в нашем каталоге, свяжитесь с нами и мы незамедлительно удалим её. Файлы для обмена на трекере предоставлены пользователями сайта, и администрация не несёт ответственности за их содержание. Просьба не заливать файлы, защищенные авторскими правами, а также файлы нелегального содержания!