На всех торрентах на трекере установлена скидка на скачивание в размере 100 процентов(а).
 Возможность скачивания торрента НЕ зависит от ограничений при низком ратио, низком аплоаде, требуемом ратио или требуемом аплоаде.


Начать новую тему Ответить на тему
Статистика раздачи
Размер: 5.83 ГБ | Добавлен: 05 июн 2014, 12:38 | Скачали: 296
Сидеров: 36  [0 байт/сек]    Личеров: 0  [0 байт/сек]
Пред. тема | След. тема 

Автор
Сообщение

СообщениеДобавлено: 05 июн 2014, 12:38 


Страна: США / Dreambridge Films, Muskat Filmed Properties LLC, Rough House (I), Worldview Entertainment

Жанр: драма, криминал
Год выпуска: 2013
Продолжительность: 01:57:44

Перевод: Профессиональный (многоголосый закадровый)
Cубтитры: русские, английские
Оригинальная аудиодорожка: английский

Режиссер: Дэвид Гордон Грин / David Gordon Green

В ролях: Николас Кейдж, Тай Шеридан, Гари Поултер, Ронни Джин Блевинс, Адриэн Мишлер, Брайан Мейс, Адж Уилсон МакФол, Сью Рок, Хезер Кафка, Бренда Исаак Бут...

Описание: В сонном городке на Миссисипи встретились два одиноких человека. Юный Гари поставил крест на своем будущем, не зная, как отвязаться от отца-алкоголика; бывший бандит Джо не желает вспоминать о прошлом. Неожиданно для самих себя они становятся друзьями.



Качество: BDRip 720p / snow-joe.2013.limited.720p.bluray.x264 + DVD9 R5 от "Премиум Фильм"
Формат: MKV

Видео: 1280x544 (2.35:1), MPEG-4 AVC 5135 Кбит/сек / 23.976 fps / Бит/(Пиксели*Кадры) : 0.308
Аудио 1: Dolby Digital Audio Russian 448 kbps 5.1 / 48 kHz
Аудио 2: DTS Audio English 1536 kbps 5.1 / 48 kHz
Формат субтитров: SoftSub (srt)

Дополнительно: Фильм разбит на главы, как на оригинальном Blu-Ray диске.

Раздача от:
Общее
Полное имя : Djo.2013.P.BDRip.720p.New-Team.mkv
Формат : Matroska
Версия формата : Version 4 / Version 2
Размер файла : 5,83 Гбайт
Продолжительность : 1 ч. 57 м.
Общий поток : 7094 Кбит/сек
Дата кодирования : UTC 2014-06-05 08:23:46
Программа кодирования : mkvmerge v6.9.1 ('Blue Panther') 64bit built on Apr 18 2014 18:23:38
Библиотека кодирования : libebml v1.3.0 + libmatroska v1.4.1

Видео
Идентификатор : 1
Формат : AVC
Формат/Информация : Advanced Video Codec
Профиль формата : High@L4.1
Параметр CABAC формата : Да
Параметр ReFrames формата : 5 кадров
Идентификатор кодека : V_MPEG4/ISO/AVC
Продолжительность : 1 ч. 57 м.
Битрейт : 5135 Кбит/сек
Ширина : 1280 пикселей
Высота : 544 пикселя
Соотношение сторон : 2,35:1
Режим частоты кадров : Постоянный
Частота кадров : 23,976 кадра/сек
Цветовое пространство : YUV
Субдискретизация насыщенности : 4:2:0
Битовая глубина : 8 бит
Тип развёртки : Прогрессивная
Бит/(Пиксели*Кадры) : 0.308
Размер потока : 4,11 Гбайт (70%)
Библиотека кодирования : x264 core 142 r2431 ac76440
Настройки программы : cabac=1 / ref=5 / deblock=1:0:0 / analyse=0x3:0x133 / me=umh / subme=7 / psy=1 / psy_rd=1.00:0.00 / mixed_ref=1 / me_range=16 / chroma_me=1 / trellis=1 / 8x8dct=1 / cqm=0 / deadzone=21,11 / fast_pskip=1 / chroma_qp_offset=-2 / threads=8 / lookahead_threads=1 / sliced_threads=0 / nr=0 / decimate=1 / interlaced=0 / bluray_compat=0 / constrained_intra=0 / bframes=3 / b_pyramid=2 / b_adapt=2 / b_bias=0 / direct=3 / weightb=1 / open_gop=0 / weightp=2 / keyint=250 / keyint_min=23 / scenecut=40 / intra_refresh=0 / rc_lookahead=50 / rc=2pass / mbtree=1 / bitrate=5135 / ratetol=1.0 / qcomp=0.60 / qpmin=0 / qpmax=69 / qpstep=4 / cplxblur=20.0 / qblur=0.5 / ip_ratio=1.40 / aq=1:1.00
Язык : English
Default : Да
Forced : Нет

Аудио #1
Идентификатор : 2
Формат : AC-3
Формат/Информация : Audio Coding 3
Расширение режима : CM (complete main)
Параметр Endianness формата : Big
Идентификатор кодека : A_AC3
Продолжительность : 1 ч. 57 м.
Вид битрейта : Постоянный
Битрейт : 448 Кбит/сек
Каналы : 6 каналов
Расположение каналов : Front: L C R, Side: L R, LFE
Частота : 48,0 КГц
Битовая глубина : 16 бит
Метод сжатия : С потерями
Размер потока : 377 Мбайт (6%)
Язык : Russian
Default : Да
Forced : Нет

Аудио #2
Идентификатор : 3
Формат : DTS
Формат/Информация : Digital Theater Systems
Режим : 16
Параметр Endianness формата : Big
Идентификатор кодека : A_DTS
Продолжительность : 1 ч. 57 м.
Вид битрейта : Постоянный
Битрейт : 1509 Кбит/сек
Каналы : 6 каналов
Расположение каналов : Front: L C R, Side: L R, LFE
Частота : 48,0 КГц
Битовая глубина : 24 бит
Метод сжатия : С потерями
Размер потока : 1,24 Гбайт (21%)
Язык : English
Default : Нет
Forced : Нет

Текст #1
Идентификатор : 4
Формат : UTF-8
Идентификатор кодека : S_TEXT/UTF8
Идентификатор кодека/Информация : UTF-8 Plain Text
Заголовок : R5
Язык : Russian
Default : Нет
Forced : Нет

Текст #2
Идентификатор : 5
Формат : UTF-8
Идентификатор кодека : S_TEXT/UTF8
Идентификатор кодека/Информация : UTF-8 Plain Text
Заголовок : English
Язык : English
Default : Нет
Forced : Нет

Текст #3
Идентификатор : 6
Формат : UTF-8
Идентификатор кодека : S_TEXT/UTF8
Идентификатор кодека/Информация : UTF-8 Plain Text
Заголовок : English
Язык : English
Default : Нет
Forced : Нет

Текст #4
Идентификатор : 7
Формат : UTF-8
Идентификатор кодека : S_TEXT/UTF8
Идентификатор кодека/Информация : UTF-8 Plain Text
Заголовок : English SDH
Язык : English
Default : Нет
Forced : Нет

Меню
00:00:00.000 : en:00:00:00.000
00:07:15.352 : en:00:07:15.352
00:15:04.737 : en:00:15:04.737
00:22:57.626 : en:00:22:57.626
00:30:28.410 : en:00:30:28.410
00:36:18.259 : en:00:36:18.259
00:45:06.078 : en:00:45:06.078
00:51:36.135 : en:00:51:36.135
00:58:00.268 : en:00:58:00.268
01:06:51.925 : en:01:06:51.925
01:15:03.416 : en:01:15:03.416
01:21:47.861 : en:01:21:47.861
01:29:49.217 : en:01:29:49.217
01:36:16.020 : en:01:36:16.020
01:44:49.074 : en:01:44:49.074
01:52:03.759 : en:01:52:03.759


загрузка...
Правила, инструкции, FAQ!!!
Торрент  Добавлен [05 июн 2014, 12:38] Скачать торрент
Скачать торрент
[ Размер 15.27 КБ / Просмотров 7 ]

Статус
Проверен 
 
Размер  5.83 ГБ
Приватный: Нет (DHT включён)
.torrent скачан  296
Как залить торрент? | Как скачать Torrent? | Как смотреть и слушать онлайн?  


     Отправить личное сообщение
   
Страница 1 из 1
Показать сообщения за:  Поле сортировки  
Начать новую тему Ответить на тему

   Похожие торренты   Автор   Ответы   Просмотры   Последнее сообщение 
В этой теме нет новых непрочитанных сообщений. Скачать торрент РЭД 2 / Red 2 (2013) BDRip 720p | Лицензия

в форуме 720p | 1080p, Размер: 2.96 ГБ, Здоровье: 100%

Anonymous

0
20|1

78
0

20 дек 2013, 08:52

Anonymous Перейти к последнему сообщению

В этой теме нет новых непрочитанных сообщений. Скачать торрент Проверен Джо / Joe (2013) BDRip 720p | P | Лицензия

в форуме 720p | 1080p, Размер: 2.23 ГБ, Здоровье: 100%

Anonymous

0
122|2

42
1533

30 июл 2014, 21:50

Anonymous Перейти к последнему сообщению

В этой теме нет новых непрочитанных сообщений. Скачать торрент Ку! Кин-дза-дза (2013) BDRip 720p | Лицензия

в форуме Отечественные мультфильмы (HD Video), Размер: 1.55 ГБ, Здоровье: 100%

Anonymous

0
54|3

184
405

21 апр 2014, 16:23

Anonymous Перейти к последнему сообщению

В этой теме нет новых непрочитанных сообщений. Скачать торрент Всё включено 2 (2013) BDRip 720p | Лицензия

в форуме 720p | 1080p, Размер: 3.91 ГБ, Здоровье: 0%

Anonymous

0
0|0

32
0

16 дек 2013, 09:59

Anonymous Перейти к последнему сообщению

В этой теме нет новых непрочитанных сообщений. Скачать торрент Тебе конец! / You're Next (2013) BDRip 720p | Лицензия

в форуме 720p | 1080p, Размер: 1.68 ГБ, Здоровье: 0%

Anonymous

0
0|0

46
0

28 янв 2014, 10:03

Anonymous Перейти к последнему сообщению



Сейчас этот форум просматривают: нет зарегистрированных пользователей и гости: 2


Вы не можете начинать темы
Вы не можете отвечать на сообщения
Вы не можете редактировать свои сообщения
Вы не можете удалять свои сообщения
Вы не можете добавлять вложения

Перейти:  

!ВНИМАНИЕ!
 Ресурс не предоставляет электронные версии произведений, а занимается лишь коллекционированием и каталогизацией ссылок, присылаемых и публикуемых на форуме нашими читателями. Если вы являетесь правообладателем какого-либо представленного материала и не желаете чтобы ссылка на него находилась в нашем каталоге, свяжитесь с нами и мы незамедлительно удалим её. Файлы для обмена на трекере предоставлены пользователями сайта, и администрация не несёт ответственности за их содержание. Просьба не заливать файлы, защищенные авторскими правами, а также файлы нелегального содержания!