На всех торрентах на трекере установлена скидка на скачивание в размере 100 процентов(а).
 Возможность скачивания торрента НЕ зависит от ограничений при низком ратио, низком аплоаде, требуемом ратио или требуемом аплоаде.


Начать новую тему Ответить на тему
Статистика раздачи
Размер: 5.75 ГБ | Добавлен: 21 янв 2013, 13:53 | Скачали: 24
Сидеров: 4  [0 байт/сек]    Личеров: 3  [0 байт/сек]
Пред. тема | След. тема 

Автор
Сообщение

СообщениеДобавлено: 21 янв 2013, 13:53 

Название: Скалолаз
Оригинальное название: Cliffhanger
Год выхода: 1993
Жанр: боевик, триллер, приключения
Режиссер: Ренни Харлин


В ролях: Сильвестр Сталлоне, Джон Литгоу, Майкл Рукер, Джанин Тернер, Рекс Линн, Кэролайн Гудолл, Крэйг Фэйрбрасс, Грег Камминс, Дэнис Форест, Мишель Джойнер

О фильме:
В горах после снежной лавины теряются 5 человек. На их поиски отправляется один из лучших альпинистов и горных проводников - Гейб Уокер (Сталлоне). Неожиданно он понимает, что его специально заманили в горы для совершенно другого дела. Также становится ясно, что Гейб станет нежелательным свидетелем, от которого без раздумья "избавятся". Но свою жизнь он терять так просто не собирается и объявляет безжалостную войну банде вооруженных до зубов боевиков под предводительством международного террориста Эрика Куалена (Литгоу)...



Страна: США, Франция, Италия
Продолжительность: 01:53:00
Перевод: Профессиональный (двухголосый,закадровый)


Формат: mkv
Кодек: x264
Качество: BDRip (Оригинал: Blu-ray Disc)
Видео: 1920x800 (2,40:1), 23.976 fps, 6 850 Kbps
Звук: AC-3, 6 ch, 448 Kbps



General
Unique ID : 220134576705042975237329161458587995058 (0xA59C60973322E7A4B71FD24A71D70BB2)
Complete name : Skalolaz.1993.mkv
Format : Matroska
File size : 5.75 GiB
Duration : 1h 53mn
Overall bit rate : 7 290 Kbps
Movie name : Skalolaz.1993
Encoded date : UTC 2013-01-21 08:21:11
Writing application : mkvmerge v5.8.0 ('No Sleep / Pillow') built on Sep 2 2012 15:37:04
Writing library : libebml v1.2.3 + libmatroska v1.3.0

Video #1
ID : 1
Format : AVC
Format/Info : Advanced Video Codec
Format profile : High@L4.1
Format settings, CABAC : Yes
Format settings, ReFrames : 5 frames
Format settings, GOP : M=6, N=25
Codec ID : V_MPEG4/ISO/AVC
Duration : 1h 53mn
Bit rate : 6 850 Kbps
Width : 1 920 pixels
Height : 800 pixels
Display aspect ratio : 2.40:1
Frame rate : 23.976 fps
Color space : YUV
Chroma subsampling : 4:2:0
Bit depth : 8 bits
Scan type : Progressive
Bits/(Pixel*Frame) : 0.186
Stream size : 5.29 GiB (92%)
Title : Hatfield..
Writing library : x264 core 129 r2230 1cffe9f
Encoding settings : cabac=1 / ref=5 / deblock=1:0:0 / analyse=0x3:0x113 / me=umh / subme=10 / psy=1 / psy_rd=1.00:0.10 / mixed_ref=1 / me_range=32 / chroma_me=1 / trellis=2 / 8x8dct=1 / cqm=0 / deadzone=21,11 / fast_pskip=0 / chroma_qp_offset=-3 / threads=12 / lookahead_threads=2 / sliced_threads=0 / nr=0 / decimate=0 / interlaced=0 / bluray_compat=0 / constrained_intra=0 / bframes=5 / b_pyramid=2 / b_adapt=2 / b_bias=0 / direct=3 / weightb=1 / open_gop=0 / weightp=2 / keyint=240 / keyint_min=23 / scenecut=40 / intra_refresh=0 / rc=2pass / mbtree=0 / bitrate=6850 / ratetol=1.0 / qcomp=0.60 / qpmin=0 / qpmax=69 / qpstep=4 / cplxblur=20.0 / qblur=0.5 / ip_ratio=1.40 / pb_ratio=1.30 / aq=1:0.80
Language : English

Audio #2
ID : 2
Format : AC-3
Format/Info : Audio Coding 3
Mode extension : CM (complete main)
Codec ID : A_AC3
Duration : 1h 53mn
Bit rate mode : Constant
Bit rate : 448 Kbps
Channel(s) : 6 channels
Channel positions : Front: L C R, Side: L R, LFE
Sampling rate : 48.0 KHz
Bit depth : 16 bits
Compression mode : Lossy
Stream size : 362 MiB (6%)
Title : Профессиональный (двухголосый ,закадровый)
Language : Russian

Menu
00:00:00.000 : :Chapter 01
00:12:09.979 : :Chapter 02
00:19:15.195 : :Chapter 03
00:30:03.760 : :Chapter 04
00:38:24.969 : :Chapter 05
00:48:16.810 : :Chapter 06
00:57:24.774 : :Chapter 07
01:06:04.961 : :Chapter 08
01:16:15.654 : :Chapter 09
01:24:32.650 : :Chapter 10
01:34:21.072 : :Chapter 11
01:44:06.823 : :Chapter 12
x264 [info]: frame I:1297 Avg QP:15.14 size:152659
x264 [info]: frame P:42888 Avg QP:17.56 size: 61768
x264 [info]: frame B:118391 Avg QP:19.11 size: 24925
загрузка...
Правила, инструкции, FAQ!!!
Торрент  Добавлен [21 янв 2013, 13:53] Скачать торрент
Скачать торрент
[ Размер 29.18 КБ / Просмотров 11 ]

Статус
Проверен 
 
Размер  5.75 ГБ
Приватный: Нет (DHT включён)
.torrent скачан  24
Как залить торрент? | Как скачать Torrent? | Как смотреть и слушать онлайн?  


     Отправить личное сообщение
   
Страница 1 из 1
Показать сообщения за:  Поле сортировки  
Начать новую тему Ответить на тему

   Похожие торренты   Автор   Ответы   Просмотры   Последнее сообщение 
В этой теме нет новых непрочитанных сообщений. Скачать торрент Проверен Скалолаз / Cliffhanger (1993) BDRip

в форуме Боевики, Размер: 1.45 ГБ, Здоровье: 100%

Anonymous

0
27|2

66
212

21 сен 2014, 11:56

Anonymous Перейти к последнему сообщению

В этой теме нет новых непрочитанных сообщений. Скачать торрент Разрушитель / Demolition Man (1993) BDRip 1080p

в форуме 720p | 1080p, Размер: 7.76 ГБ, Здоровье: 100%

Anonymous

0
19|2

40
7

13 янв 2014, 20:05

Anonymous Перейти к последнему сообщению

В этой теме нет новых непрочитанных сообщений. Скачать торрент Фирма / The Firm (1993) BDRip [1080p]

в форуме 720p | 1080p, Размер: 15.77 ГБ, Здоровье: 100%

Anonymous

0
8|1

35
0

20 апр 2014, 22:00

Anonymous Перейти к последнему сообщению

В этой теме нет новых непрочитанных сообщений. Скачать торрент Проверен Похитители тел / Body Snatchers (1993) BDRip 1080p | D, P, P2, A

в форуме 720p | 1080p, Размер: 8.79 ГБ, Здоровье: 100%

Гость

0
36|6

30
30

16 ноя 2016, 00:07

Гость Перейти к последнему сообщению

В этой теме нет новых непрочитанных сообщений. Скачать торрент Проверен Путь Карлито / Carlito's Way (1993) BDRip 1080p

в форуме 720p | 1080p, Размер: 11.55 ГБ, Здоровье: 100%

Гость

0
36|16

135
20

14 апр 2015, 22:18

Гость Перейти к последнему сообщению



Сейчас этот форум просматривают: нет зарегистрированных пользователей и гости: 1


Вы не можете начинать темы
Вы не можете отвечать на сообщения
Вы не можете редактировать свои сообщения
Вы не можете удалять свои сообщения
Вы не можете добавлять вложения

Перейти:  

!ВНИМАНИЕ!
 Ресурс не предоставляет электронные версии произведений, а занимается лишь коллекционированием и каталогизацией ссылок, присылаемых и публикуемых на форуме нашими читателями. Если вы являетесь правообладателем какого-либо представленного материала и не желаете чтобы ссылка на него находилась в нашем каталоге, свяжитесь с нами и мы незамедлительно удалим её. Файлы для обмена на трекере предоставлены пользователями сайта, и администрация не несёт ответственности за их содержание. Просьба не заливать файлы, защищенные авторскими правами, а также файлы нелегального содержания!