На всех торрентах на трекере установлена скидка на скачивание в размере 100 процентов(а).
 Возможность скачивания торрента НЕ зависит от ограничений при низком ратио, низком аплоаде, требуемом ратио или требуемом аплоаде.


Начать новую тему Ответить на тему
Статистика раздачи
Размер: 4.42 ГБ | Добавлен: 27 май 2014, 23:46 | Скачали: 389
Сидеров: 33  [0 байт/сек]    Личеров: 0  [0 байт/сек]
Пред. тема | След. тема 

Автор
Сообщение

СообщениеДобавлено: 27 май 2014, 23:46 

Название: Обыкновенное сердце
Оригинальное название: The Normal Heart
Год выхода: 2014
Жанр: драма
Режиссер: Райан Мерфи

В ролях: Тейлор Китч, Джонатан Грофф, Мэтт Бомер, Джулия Робертс, Марк Руффало, Джим Парсонс, Дэнис О’Хэйр, Джо Засо, Финн Уиттрок, Реми Обержене

О фильме:
Хроника первых случаев заболевания СПИДом в нью-йоркском гей-сообществе в первой половине 1980-х. У Марка Руффало — центральный образ Неда Уикса, активиста гей-движения, обратившего внимание на неизвестное доселе заболевание, прозванное «раком гомосексуалистов».



Выпущено: США
Продолжительность: 02:12:34
Озвучивание: Профессиональное (многоголосое) [Amedia]


Формат: MKV
Качество: HDTV 720p [BATV]
Видео: 4104 kb/s, 1280x720
Аудио: Russian: AC3, 192 kb/s (2 ch) / English: AC3, 384 kb/s (6 ch)
Субтитры: English

Скачать: Сэмпл

Релиз группы:



Общее
The.Normal.Heart.2014.HDTV.720p.CINEMANIA.mkv
Формат : Matroska
Версия формата : Version 4 / Version 2
Размер файла : 4,42 Гбайт
Продолжительность : 2 ч. 12 м.
Общий поток : 4775 Кбит/сек
Название фильма : Release Group CINEMANIA
Дата кодирования : UTC 2014-05-27 19:34:34
Программа кодирования : mkvmerge v6.9.1 ('Blue Panther') 64bit built on Apr 18 2014 18:23:38
Библиотека кодирования : libebml v1.3.0 + libmatroska v1.4.1

Видео
Идентификатор : 1
Формат : AVC
Формат/Информация : Advanced Video Codec
Профиль формата : High@L4.1
Параметр CABAC формата : Да
Параметр ReFrames формата : 5 кадров
Идентификатор кодека : V_MPEG4/ISO/AVC
Продолжительность : 2 ч. 12 м.
Битрейт : 4104 Кбит/сек
Ширина : 1280 пикселей
Высота : 720 пикселей
Соотношение сторон : 16:9
Режим частоты кадров : Постоянный
Частота кадров : 23,976 кадра/сек
Цветовое пространство : YUV
Субдискретизация насыщенности : 4:2:0
Битовая глубина : 8 бит
Тип развёртки : Прогрессивная
Бит/(Пиксели*Кадры) : 0.186
Размер потока : 3,80 Гбайт (86%)
Заголовок : Release Group CINEMANIA
Библиотека кодирования : x264 core 142 r2431 ac76440
Настройки программы : cabac=1 / ref=5 / deblock=1:0:0 / analyse=0x3:0x113 / me=umh / subme=8 / psy=1 / psy_rd=1.00:0.00 / mixed_ref=1 / me_range=16 / chroma_me=1 / trellis=1 / 8x8dct=1 / cqm=0 / deadzone=21,11 / fast_pskip=1 / chroma_qp_offset=-2 / threads=18 / lookahead_threads=3 / sliced_threads=0 / nr=0 / decimate=1 / interlaced=0 / bluray_compat=0 / constrained_intra=0 / bframes=3 / b_pyramid=2 / b_adapt=2 / b_bias=0 / direct=3 / weightb=1 / open_gop=0 / weightp=2 / keyint=250 / keyint_min=23 / scenecut=40 / intra_refresh=0 / rc_lookahead=50 / rc=crf / mbtree=1 / crf=18.0 / qcomp=0.60 / qpmin=0 / qpmax=69 / qpstep=4 / ip_ratio=1.40 / aq=1:1.00
Язык : English
Default : Да
Forced : Нет
Коэффициенты матрицы : BT.709

Аудио #1
Идентификатор : 2
Формат : AC-3
Формат/Информация : Audio Coding 3
Расширение режима : CM (complete main)
Параметр Endianness формата : Big
Идентификатор кодека : A_AC3
Продолжительность : 2 ч. 12 м.
Вид битрейта : Постоянный
Битрейт : 192 Кбит/сек
Каналы : 2 канала
Расположение каналов : Front: L R
Частота : 48,0 КГц
Битовая глубина : 16 бит
Метод сжатия : С потерями
Размер потока : 182 Мбайт (4%)
Заголовок : Amedia
Язык : Russian
Default : Да
Forced : Да

Аудио #2
Идентификатор : 3
Формат : AC-3
Формат/Информация : Audio Coding 3
Расширение режима : CM (complete main)
Параметр Endianness формата : Big
Идентификатор кодека : A_AC3
Продолжительность : 2 ч. 12 м.
Вид битрейта : Постоянный
Битрейт : 384 Кбит/сек
Каналы : 6 каналов
Расположение каналов : Front: L C R, Side: L R, LFE
Частота : 48,0 КГц
Битовая глубина : 16 бит
Метод сжатия : С потерями
Размер потока : 364 Мбайт (8%)
Язык : English
Default : Нет
Forced : Нет

Текст
Идентификатор : 4
Формат : UTF-8
Идентификатор кодека : S_TEXT/UTF8
Идентификатор кодека/Информация : UTF-8 Plain Text
Язык : English
Default : Нет
Forced : Нет
загрузка...
Правила, инструкции, FAQ!!!
Торрент  Добавлен [27 май 2014, 23:46] Скачать торрент
Скачать торрент
[ Размер 22.67 КБ / Просмотров 3 ]

Статус
Проверен 
 
Размер  4.42 ГБ
Приватный: Нет (DHT включён)
.torrent скачан  389
Как залить торрент? | Как скачать Torrent? | Как смотреть и слушать онлайн?  


     Отправить личное сообщение
   
Страница 1 из 1
Показать сообщения за:  Поле сортировки  
Начать новую тему Ответить на тему

   Похожие торренты   Автор   Ответы   Просмотры   Последнее сообщение 
В этой теме нет новых непрочитанных сообщений. Скачать торрент Проверен Обыкновенное сердце / The Normal Heart (2014) HDTVRip | P

в форуме Драмы, Мелодрамы, Размер: 1.46 ГБ, Здоровье: 100%

Anonymous

0
8|0

40
10

27 май 2014, 23:39

Anonymous Перейти к последнему сообщению

В этой теме нет новых непрочитанных сообщений. Скачать торрент Проверен Сердце льва / Heart of A Lion / Leijonasydän (2013) BDRip 720p | L1

в форуме 720p | 1080p, Размер: 3.77 ГБ, Здоровье: 100%

Anonymous

0
31|0

35
388

26 май 2014, 21:53

Anonymous Перейти к последнему сообщению

В этой теме нет новых непрочитанных сообщений. Скачать торрент Проверен Motley Crue • Kickstart My Heart (Jimmy Kimmel Live) [2014, Hard & Heavy, HDTV 720p]

в форуме Концерты (HD-Video), Размер: 442.56 МБ, Здоровье: 100%

Anonymous

0
4|2

8
1

23 окт 2016, 13:16

Anonymous Перейти к последнему сообщению

В этой теме нет новых непрочитанных сообщений. Скачать торрент Проверен [iPad] Сердце Ангела / Angel heart (Алан Паркер / Alan Parker) [1987 г., Мистика, ужасы, триллер, BDRip 720p]

в форуме Фильмы для iPod, iPhone, iPad, Размер: 3.26 ГБ, Здоровье: 100%

Гость

0
12|4

41
0

18 май 2015, 10:49

Гость Перейти к последнему сообщению

В этой теме нет новых непрочитанных сообщений. Скачать торрент Проверен Heart • Band On The Run(Paul McCartney & Wings Cover) - Jimmy Kimmel Live [2015, Rock, HDTV 720p]

в форуме Концерты (HD-Video), Размер: 444.6 МБ, Здоровье: 100%

Anonymous

0
42|1

99
3

01 май 2015, 20:16

Anonymous Перейти к последнему сообщению



Сейчас этот форум просматривают: нет зарегистрированных пользователей и гости: 2


Вы не можете начинать темы
Вы не можете отвечать на сообщения
Вы не можете редактировать свои сообщения
Вы не можете удалять свои сообщения
Вы не можете добавлять вложения

Перейти:  

!ВНИМАНИЕ!
 Ресурс не предоставляет электронные версии произведений, а занимается лишь коллекционированием и каталогизацией ссылок, присылаемых и публикуемых на форуме нашими читателями. Если вы являетесь правообладателем какого-либо представленного материала и не желаете чтобы ссылка на него находилась в нашем каталоге, свяжитесь с нами и мы незамедлительно удалим её. Файлы для обмена на трекере предоставлены пользователями сайта, и администрация не несёт ответственности за их содержание. Просьба не заливать файлы, защищенные авторскими правами, а также файлы нелегального содержания!