На всех торрентах на трекере установлена скидка на скачивание в размере 100 процентов(а).
 Возможность скачивания торрента НЕ зависит от ограничений при низком ратио, низком аплоаде, требуемом ратио или требуемом аплоаде.


Начать новую тему Ответить на тему
Статистика раздачи
Размер: 3.77 ГБ | Добавлен: 26 май 2014, 21:53 | Скачали: 388
Сидеров: 31  [0 байт/сек]    Личеров: 0  [0 байт/сек]
Пред. тема | След. тема 

Автор
Сообщение

СообщениеДобавлено: 26 май 2014, 21:53 

Название: Сердце льва
Оригинальное название: Heart of A Lion / Leijonasydan
Год выхода: 2013
Жанр: драма
Режиссер: Доме Карукоски

В ролях: Петер Францен, Лаура Бирн, Яспер Пяякконен, Памела Тола, Юсси Ватанен, Деограсиас Масоми, Микко Неувонен, Лаура Хеймо, Тимо Лавикайнен, Юха Пурсиайнен

О фильме:
Молодой парень Теппо, придерживающийся неонацистских взглядов, страстно влюбляется в Сари, у которой есть маленький темнокожий сын Раму. Эти отношения ставят перед парнем сложные вопросы. Способен ли Теппо перерасти свои собственные предрассудки? Что окажется для него важнее: любовь или же преданность друзьям? Есть ли в сердце храброго льва место для нежности?



Выпущено: Финляндия, Швеция
Продолжительность: 01:39:18
Озвучивание: Любительское (одноголосое) [ХихиДок]


Формат: MKV
Качество: BDRip 720p [CRiSC]
Видео: 4501 kb/s, 1280х536
Аудио: Russian: AC3, 192 kb/s (2 ch) / Finnish: AC3, 640 kb/s (6 ch)
Субтитры: Russian [forced], English
Дополнительно: Сохранены оригинальные чаптеры как на Blu-Ray

Скачать: Сэмпл

Релиз группы:



Общее
Heart.of.a.Lion.2013.Blu.Ray.720p.CINEMANIA.mkv
Формат : Matroska
Версия формата : Version 4 / Version 2
Размер файла : 3,77 Гбайт
Продолжительность : 1 ч. 39 м.
Общий поток : 5441 Кбит/сек
Название фильма : Release Group CINEMANIA
Дата кодирования : UTC 2014-05-26 17:59:05
Программа кодирования : mkvmerge v6.9.1 ('Blue Panther') 64bit built on Apr 18 2014 18:23:38
Библиотека кодирования : libebml v1.3.0 + libmatroska v1.4.1

Видео
Идентификатор : 1
Формат : AVC
Формат/Информация : Advanced Video Codec
Профиль формата : High@L4.1
Параметр CABAC формата : Да
Параметр ReFrames формата : 12 кадров
Идентификатор кодека : V_MPEG4/ISO/AVC
Продолжительность : 1 ч. 39 м.
Битрейт : 4501 Кбит/сек
Ширина : 1280 пикселей
Высота : 536 пикселей
Соотношение сторон : 2,40:1
Режим частоты кадров : Постоянный
Частота кадров : 23,976 кадра/сек
Цветовое пространство : YUV
Субдискретизация насыщенности : 4:2:0
Битовая глубина : 8 бит
Тип развёртки : Прогрессивная
Бит/(Пиксели*Кадры) : 0.274
Размер потока : 3,12 Гбайт (83%)
Заголовок : Release Group CINEMANIA
Библиотека кодирования : x264 core 142 r2409kMod d6b4e63
Настройки программы : cabac=1 / ref=12 / deblock=1:-3:-3 / analyse=0x3:0x133 / me=umh / subme=11 / psy=1 / fade_compensate=0.00 / psy_rd=1.10:0.10 / mixed_ref=1 / me_range=64 / chroma_me=1 / trellis=2 / 8x8dct=1 / cqm=0 / deadzone=21,11 / fast_pskip=0 / chroma_qp_offset=-3 / threads=12 / lookahead_threads=2 / sliced_threads=0 / nr=0 / decimate=0 / interlaced=0 / bluray_compat=0 / constrained_intra=0 / fgo=0 / bframes=8 / b_pyramid=2 / b_adapt=2 / b_bias=0 / direct=3 / weightb=1 / open_gop=0 / weightp=2 / keyint=250 / keyint_min=23 / scenecut=40 / intra_refresh=0 / rc_lookahead=40 / rc=crf / mbtree=0 / crf=17.0000 / qcomp=0.70 / qpmin=0 / qpmax=69 / qpstep=4 / vbv_maxrate=50000 / vbv_bufsize=62500 / crf_max=0.0 / nal_hrd=none / filler=0 / ip_ratio=1.30 / pb_ratio=1.20 / aq=1:0.90
Язык : Finnish
Default : Да
Forced : Нет
Основные цвета : BT.709
Характеристики трансфера : BT.709
Коэффициенты матрицы : BT.709

Аудио #1
Идентификатор : 2
Формат : AC-3
Формат/Информация : Audio Coding 3
Расширение режима : CM (complete main)
Параметр Endianness формата : Big
Идентификатор кодека : A_AC3
Продолжительность : 1 ч. 39 м.
Вид битрейта : Постоянный
Битрейт : 192 Кбит/сек
Каналы : 2 канала
Расположение каналов : Front: L R
Частота : 44,1 КГц
Битовая глубина : 16 бит
Метод сжатия : С потерями
Размер потока : 136 Мбайт (4%)
Заголовок : ХиХиДок
Язык : Russian
Default : Да
Forced : Да

Аудио #2
Идентификатор : 3
Формат : AC-3
Формат/Информация : Audio Coding 3
Расширение режима : CM (complete main)
Параметр Endianness формата : Big
Идентификатор кодека : A_AC3
Продолжительность : 1 ч. 39 м.
Вид битрейта : Постоянный
Битрейт : 640 Кбит/сек
Каналы : 6 каналов
Расположение каналов : Front: L C R, Side: L R, LFE
Частота : 48,0 КГц
Битовая глубина : 16 бит
Метод сжатия : С потерями
Размер потока : 455 Мбайт (12%)
Язык : Finnish
Default : Нет
Forced : Нет

Текст #1
Идентификатор : 4
Формат : UTF-8
Идентификатор кодека : S_TEXT/UTF8
Идентификатор кодека/Информация : UTF-8 Plain Text
Заголовок : forced
Язык : Russian
Default : Да
Forced : Да

Текст #2
Идентификатор : 5
Формат : UTF-8
Идентификатор кодека : S_TEXT/UTF8
Идентификатор кодека/Информация : UTF-8 Plain Text
Язык : English
Default : Нет
Forced : Нет

Меню
00:00:00.000 : en:00:00:00.000
00:02:29.441 : en:00:02:29.441
00:09:12.802 : en:00:09:12.802
00:25:01.500 : en:00:25:01.500
00:32:48.466 : en:00:32:48.466
00:42:26.210 : en:00:42:26.210
00:52:00.159 : en:00:52:00.159
01:00:43.723 : en:01:00:43.723
01:09:16.778 : en:01:09:16.778
01:16:31.253 : en:01:16:31.253
01:26:21.134 : en:01:26:21.134
01:34:16.067 : en:01:34:16.067
загрузка...
Правила, инструкции, FAQ!!!
Торрент  Добавлен [26 май 2014, 21:53] Скачать торрент
Скачать торрент
[ Размер 19.45 КБ / Просмотров 9 ]

Статус
Проверен 
 
Размер  3.77 ГБ
Приватный: Нет (DHT включён)
.torrent скачан  388
Как залить торрент? | Как скачать Torrent? | Как смотреть и слушать онлайн?  


     Отправить личное сообщение
   
Страница 1 из 1
Показать сообщения за:  Поле сортировки  
Начать новую тему Ответить на тему

   Похожие торренты   Автор   Ответы   Просмотры   Последнее сообщение 
В этой теме нет новых непрочитанных сообщений. Скачать торрент Проверен Сердце льва / Heart of A Lion / Leijonasydän (2013) BDRip 1080p | L1

в форуме 720p | 1080p, Размер: 10.13 ГБ, Здоровье: 100%

Anonymous

0
7|0

38
122

26 май 2014, 21:50

Anonymous Перейти к последнему сообщению

В этой теме нет новых непрочитанных сообщений. Скачать торрент Проверен Сердце льва / Leijonasydan / Heart of a lion (2013) HDRip

в форуме Драмы, Мелодрамы, Размер: 1.44 ГБ, Здоровье: 100%

Anonymous

0
37|2

44
295

04 июн 2014, 00:30

Anonymous Перейти к последнему сообщению

В этой теме нет новых непрочитанных сообщений. Скачать торрент Проверен [iPad] Сердце Ангела / Angel heart (Алан Паркер / Alan Parker) [1987 г., Мистика, ужасы, триллер, BDRip 720p]

в форуме Фильмы для iPod, iPhone, iPad, Размер: 3.26 ГБ, Здоровье: 100%

Гость

0
12|4

41
0

18 май 2015, 10:49

Гость Перейти к последнему сообщению

В этой теме нет новых непрочитанных сообщений. Скачать торрент Проверен Обыкновенное сердце / The Normal Heart (2014) HDTV 720p | P

в форуме 720p | 1080p, Размер: 4.42 ГБ, Здоровье: 100%

Anonymous

0
33|0

35
389

27 май 2014, 23:46

Anonymous Перейти к последнему сообщению

В этой теме нет новых непрочитанных сообщений. Скачать торрент Проверен Доброе сердце / The Good Heart (2009) BDRip | Лицензия

в форуме Драмы, Мелодрамы, Размер: 1.45 ГБ, Здоровье: 100%

Anonymous

0
2|0

52
21

04 июл 2014, 17:49

Anonymous Перейти к последнему сообщению



Сейчас этот форум просматривают: нет зарегистрированных пользователей и гости: 2


Вы не можете начинать темы
Вы не можете отвечать на сообщения
Вы не можете редактировать свои сообщения
Вы не можете удалять свои сообщения
Вы не можете добавлять вложения

Перейти:  

!ВНИМАНИЕ!
 Ресурс не предоставляет электронные версии произведений, а занимается лишь коллекционированием и каталогизацией ссылок, присылаемых и публикуемых на форуме нашими читателями. Если вы являетесь правообладателем какого-либо представленного материала и не желаете чтобы ссылка на него находилась в нашем каталоге, свяжитесь с нами и мы незамедлительно удалим её. Файлы для обмена на трекере предоставлены пользователями сайта, и администрация не несёт ответственности за их содержание. Просьба не заливать файлы, защищенные авторскими правами, а также файлы нелегального содержания!