На всех торрентах на трекере установлена скидка на скачивание в размере 100 процентов(а).
 Возможность скачивания торрента НЕ зависит от ограничений при низком ратио, низком аплоаде, требуемом ратио или требуемом аплоаде.


Начать новую тему Ответить на тему
Статистика раздачи
Размер: 8.71 ГБ | Добавлен: 26 май 2014, 07:16 | Скачали: 212
Сидеров: 64  [0 байт/сек]    Личеров: 3  [0 байт/сек]
Пред. тема | След. тема 

Автор
Сообщение

СообщениеДобавлено: 26 май 2014, 07:16 

Название: Последний рубеж
Оригинальное название: Homefront
Год выпуска: 2013
Жанр: Боевик, криминал
Режиссер: Гэри Фледер

В ролях: Джейсон Стэйтем, Джеймс Франко, Вайнона Райдер, Кейт Босворт, Рашель Лефевр, Фрэнк Грилло, Клэнси Браун, Изабела Видович, Криста Кэмпбелл, Стеффи Гроут

Вкратце
Фил Брокер — бывший агент из отдела борьбы с наркотиками. Фил переезжает в небольшой город вместе с семьей в надежде забыть прошлое. Но он узнает, что город только со стороны кажется тихим и спокойным местом, на самом деле он кишит насилием, наркотиками, а всем этим заправляет злодей по кличке Аллигатор…



Выпущено: США, Homefront Productions, Millennium Films, Nu-Image Films
Продолжительность: 01:40:34
Озвучивание: Дублированное ["Мосфильм мастер"]


Формат: MKV
Качество: BDRip (1080p)
Видео: MPEG-4 AVC, 9378 Кбит/с, 1920x800
Аудио: Русский, английский (DTS, 6 ch, 1510 Кбит/с)

Скачать: Сэмпл

General
Unique ID : 249957344808284634921465674884971612270 (0xBC0C0894AC753C77A95EE6C89E91C86E)
Complete name : D:Загрузки µTorrentPosledniy.Rubej.2013.D.BDRip.1080p.mkv
Format : Matroska
Format version : Version 2
File size : 8.71 GiB
Duration : 1h 40mn
Overall bit rate : 12.4 Mbps
Encoded date : UTC 2014-05-25 16:37:36
Writing application : mkvmerge v6.9.1 ('Blue Panther') 64bit built on Apr 18 2014 18:23:38
Writing library : libebml v1.3.0 + libmatroska v1.4.1

Video
ID : 1
Format : AVC
Format/Info : Advanced Video Codec
Format profile : High@L4.1
Format settings, CABAC : Yes
Format settings, ReFrames : 5 frames
Codec ID : V_MPEG4/ISO/AVC
Duration : 1h 40mn
Bit rate : 9 378 Kbps
Width : 1 920 pixels
Height : 800 pixels
Display aspect ratio : 2.40:1
Frame rate mode : Constant
Frame rate : 23.976 fps
Color space : YUV
Chroma subsampling : 4:2:0
Bit depth : 8 bits
Scan type : Progressive
Bits/(Pixel*Frame) : 0.255
Stream size : 6.41 GiB (74%)
Title : X264
Writing library : x264 core 140 r2377 1ca7bb9
Encoding settings : cabac=1 / ref=5 / deblock=1:0:0 / analyse=0x3:0x133 / me=umh / subme=7 / psy=1 / psy_rd=1.00:0.00 / mixed_ref=1 / me_range=16 / chroma_me=1 / trellis=1 / 8x8dct=1 / cqm=0 / deadzone=21,11 / fast_pskip=0 / chroma_qp_offset=-2 / threads=18 / lookahead_threads=3 / sliced_threads=0 / nr=0 / decimate=1 / interlaced=0 / bluray_compat=0 / constrained_intra=0 / bframes=3 / b_pyramid=2 / b_adapt=1 / b_bias=0 / direct=1 / weightb=1 / open_gop=0 / weightp=2 / keyint=250 / keyint_min=23 / scenecut=40 / intra_refresh=0 / rc_lookahead=40 / rc=2pass / mbtree=1 / bitrate=9378 / ratetol=1.0 / qcomp=0.60 / qpmin=0 / qpmax=69 / qpstep=4 / cplxblur=20.0 / qblur=0.5 / ip_ratio=1.40 / aq=1:1.00
Language : English
Default : Yes
Forced : No

Audio #1
ID : 2
Format : DTS
Format/Info : Digital Theater Systems
Mode : 16
Format settings, Endianness : Big
Codec ID : A_DTS
Duration : 1h 40mn
Bit rate mode : Constant
Bit rate : 1 509 Kbps
Channel(s) : 6 channels
Channel positions : Front: L C R, Side: L R, LFE
Sampling rate : 48.0 KHz
Bit depth : 16 bits
Compression mode : Lossy
Stream size : 1.06 GiB (12%)
Language : Russian
Default : Yes
Forced : No

Audio #2
ID : 3
Format : DTS
Format/Info : Digital Theater Systems
Mode : 16
Format settings, Endianness : Big
Codec ID : A_DTS
Duration : 1h 40mn
Bit rate mode : Constant
Bit rate : 1 509 Kbps
Channel(s) : 6 channels
Channel positions : Front: L C R, Side: L R, LFE
Sampling rate : 48.0 KHz
Bit depth : 24 bits
Compression mode : Lossy
Stream size : 1.06 GiB (12%)
Title : DTS
Language : English
Default : No
Forced : No

Menu
00:00:00.000 : en:00:00:00.000
00:04:55.462 : en:00:04:55.462
00:09:14.095 : en:00:09:14.095
00:14:55.853 : en:00:14:55.853
00:21:42.426 : en:00:21:42.426
00:25:03.001 : en:00:25:03.001
00:31:23.215 : en:00:31:23.215
00:34:04.000 : en:00:34:04.000
00:39:01.089 : en:00:39:01.089
00:45:47.995 : en:00:45:47.995
00:49:29.258 : en:00:49:29.258
00:55:16.480 : en:00:55:16.480
01:01:55.420 : en:01:01:55.420
01:08:56.174 : en:01:08:56.174
01:12:27.635 : en:01:12:27.635
01:16:00.973 : en:01:16:00.973
01:19:15.250 : en:01:19:15.250
01:24:02.621 : en:01:24:02.621
01:29:39.124 : en:01:29:39.124
01:35:16.961 : en:01:35:16.961





загрузка...
Правила, инструкции, FAQ!!!
Торрент  Добавлен [26 май 2014, 07:16] Скачать торрент
Скачать торрент
[ Размер 44.04 КБ / Просмотров 17 ]

Статус
Проверен 
 
Размер  8.71 ГБ
Приватный: Нет (DHT включён)
.torrent скачан  212
Как залить торрент? | Как скачать Torrent? | Как смотреть и слушать онлайн?  


     Отправить личное сообщение
   
Страница 1 из 1
Показать сообщения за:  Поле сортировки  
Начать новую тему Ответить на тему

   Похожие торренты   Автор   Ответы   Просмотры   Последнее сообщение 
В этой теме нет новых непрочитанных сообщений. Скачать торрент Последний рубеж / Homefront (2013) WEB-DL 720p | L1

в форуме 720p | 1080p, Размер: 2.45 ГБ, Здоровье: 100%

Anonymous

0
4|0

43
10

06 фев 2014, 10:04

Anonymous Перейти к последнему сообщению

В этой теме нет новых непрочитанных сообщений. Последний рубеж / Homefront (2013) WEB-DLRip | Звук с TS

в форуме Новинки кино, Размер: 1.37 ГБ, Здоровье: 100%

Anonymous

0
3|0

82
1

31 янв 2014, 23:28

Anonymous Перейти к последнему сообщению

В этой теме нет новых непрочитанных сообщений. Скачать торрент Последний рубеж / Homefront (2013) HDRip | Чистый звук

в форуме Боевики, Размер: 1.46 ГБ, Здоровье: 0%

Anonymous

0
0|0

56
0

25 фев 2014, 10:44

Anonymous Перейти к последнему сообщению

В этой теме нет новых непрочитанных сообщений. Скачать торрент Проверен [VIDEO] Последний рубеж / Homefront (Гэри Фледер / Gary Fleder) [2013г, США, боевик, криминал, HDRip][MP4, 640x] Dub

в форуме Видео для смартфонов и КПК, Размер: 876.69 МБ, Здоровье: 100%

Anonymous

0
36|11

53
0

02 авг 2014, 16:54

Anonymous Перейти к последнему сообщению

В этой теме нет новых непрочитанных сообщений. Скачать торрент Проверен Последний рубеж [01-04 из 04] (2015) SATRip

в форуме Отечественные сериалы, Размер: 1.92 ГБ, Здоровье: 100%

Гость

0
192|9

140
240

08 май 2016, 23:39

Гость Перейти к последнему сообщению



Сейчас этот форум просматривают: нет зарегистрированных пользователей и гости: 1


Вы не можете начинать темы
Вы не можете отвечать на сообщения
Вы не можете редактировать свои сообщения
Вы не можете удалять свои сообщения
Вы не можете добавлять вложения

Перейти:  

!ВНИМАНИЕ!
 Ресурс не предоставляет электронные версии произведений, а занимается лишь коллекционированием и каталогизацией ссылок, присылаемых и публикуемых на форуме нашими читателями. Если вы являетесь правообладателем какого-либо представленного материала и не желаете чтобы ссылка на него находилась в нашем каталоге, свяжитесь с нами и мы незамедлительно удалим её. Файлы для обмена на трекере предоставлены пользователями сайта, и администрация не несёт ответственности за их содержание. Просьба не заливать файлы, защищенные авторскими правами, а также файлы нелегального содержания!