На всех торрентах на трекере установлена скидка на скачивание в размере 100 процентов(а).
 Возможность скачивания торрента НЕ зависит от ограничений при низком ратио, низком аплоаде, требуемом ратио или требуемом аплоаде.


Начать новую тему Ответить на тему
Статистика раздачи
Размер: 4.35 ГБ | Добавлен: 25 май 2014, 10:01 | Скачали: 144
Сидеров: 15  [0 байт/сек]    Личеров: 0  [0 байт/сек]
Пред. тема | След. тема 

Автор
Сообщение

СообщениеДобавлено: 25 май 2014, 10:01 

Название: Пьянь
Оригинальное название: Barfly
Год выпуска: 1987
Жанр: Драма, мелодрама, комедия
Выпущено: США, Golan / Globus Production, Zoetrope Studios
Режиссер: Барбет Шредер

В ролях: Микки Рурк, Фэй Данауэй, Элис Крайдж, Джек Нэнс, Дж. К. Куин, Фрэнк Сталлоне, Сэнди Мартин, Роберта Бэссин, Глория ЛеРой, Джо Ангер

О фильме: Фильм поставлен по автобиографическому роману известного американского писателя Чарльза Буковски, завсегдатая многочисленных питейных заведений, откуда он черпал не только горячительные напитки, но и темы для своих произведений.

Качество: BDRip 720p

Продолжительность: 01:40:00

Видео: MPEG-4 AVC, 5329 Кбит/с, 1280x690
Аудио 1: русский, 48 kHz, AC3, 2 ch, 192 kbps avg, [Профессиональный двухголосый, R5]
Аудио 2: русский, 48 kHz, AC3, 2 ch, 192 kbps avg, [Профессиональный двухголосый, HTB]
Аудио 3: русский, 48 kHz, AC3, 2 ch, 192 kbps avg, [Авторский, Алексей Михалёв]
Аудио 4: английский, 48 kHz, AC3, 2 ch, 192 kbps avg, [Оригинал]
Субтитры 1: русские
Субтитры 2: английские

Исходник: Буковски (Кинозал)





Золотой глобус, 1988 год
Номинации (1):
Лучшая женская роль (драма) (Фэй Данауэй)
Каннский кинофестиваль, 1987 год
Номинации (1):
Золотая пальмовая ветвь
Общее
Уникальный идентификатор : 231531256852698509625276144906871169543 (0xAE2F4C4DE26B8A2882717166D1DAE207)
Полное имя : D:VideoПьянь.1987.BDRip.720p.mkv
Формат : Matroska
Версия формата : Version 4 / Version 2
Размер файла : 4,35 Гбайт
Продолжительность : 1 ч. 40 м.
Общий поток : 6221 Кбит/сек
Дата кодирования : UTC 2014-05-24 13:07:27
Программа кодирования : mkvmerge v6.9.1 ('Blue Panther') 64bit built on Apr 18 2014 18:23:38
Библиотека кодирования : libebml v1.3.0 + libmatroska v1.4.1

Видео
Идентификатор : 1
Формат : AVC
Формат/Информация : Advanced Video Codec
Профиль формата : High@L4.1
Параметр CABAC формата : Да
Параметр ReFrames формата : 9 кадров
Идентификатор кодека : V_MPEG4/ISO/AVC
Продолжительность : 1 ч. 40 м.
Битрейт : 5329 Кбит/сек
Ширина : 1280 пикселей
Высота : 690 пикселей
Соотношение сторон : 1,85:1
Режим частоты кадров : Постоянный
Частота кадров : 23,976 кадра/сек
Цветовое пространство : YUV
Субдискретизация насыщенности : 4:2:0
Битовая глубина : 8 бит
Тип развёртки : Прогрессивная
Бит/(Пиксели*Кадры) : 0.252
Размер потока : 3,72 Гбайт (86%)
Заголовок : BDRip -- STarankov
Библиотека кодирования : x264 core 138 r2358 9e941d1
Настройки программы : cabac=1 / ref=9 / deblock=1:-1:-1 / analyse=0x3:0x113 / me=umh / subme=10 / psy=1 / psy_rd=1.00:0.15 / mixed_ref=1 / me_range=32 / chroma_me=1 / trellis=2 / 8x8dct=1 / cqm=0 / deadzone=21,11 / fast_pskip=0 / chroma_qp_offset=-3 / threads=6 / lookahead_threads=1 / sliced_threads=0 / nr=0 / decimate=1 / interlaced=0 / bluray_compat=0 / constrained_intra=0 / bframes=8 / b_pyramid=2 / b_adapt=2 / b_bias=0 / direct=1 / weightb=1 / open_gop=0 / weightp=2 / keyint=230 / keyint_min=23 / scenecut=40 / intra_refresh=0 / rc_lookahead=40 / rc=crf / mbtree=0 / crf=20.0 / qcomp=0.60 / qpmin=0 / qpmax=69 / qpstep=4 / vbv_maxrate=40000 / vbv_bufsize=50000 / crf_max=0.0 / nal_hrd=none / ip_ratio=1.40 / pb_ratio=1.30 / aq=1:1.00
Язык : English
Default : Да
Forced : Нет

Аудио #1
Идентификатор : 2
Формат : AC-3
Формат/Информация : Audio Coding 3
Расширение режима : CM (complete main)
Параметр Endianness формата : Big
Идентификатор кодека : A_AC3
Продолжительность : 1 ч. 40 м.
Вид битрейта : Постоянный
Битрейт : 192 Кбит/сек
Каналы : 2 канала
Расположение каналов : Front: L R
Частота : 48,0 КГц
Битовая глубина : 16 бит
Метод сжатия : С потерями
Размер потока : 137 Мбайт (3%)
Заголовок : DVO (R5)
Язык : Russian
Default : Да
Forced : Нет

Аудио #2
Идентификатор : 3
Формат : AC-3
Формат/Информация : Audio Coding 3
Расширение режима : CM (complete main)
Параметр Endianness формата : Big
Идентификатор кодека : A_AC3
Продолжительность : 1 ч. 40 м.
Вид битрейта : Постоянный
Битрейт : 192 Кбит/сек
Каналы : 2 канала
Расположение каналов : Front: L R
Частота : 48,0 КГц
Битовая глубина : 16 бит
Метод сжатия : С потерями
Размер потока : 137 Мбайт (3%)
Заголовок : DVO (HTB)
Язык : Russian
Default : Нет
Forced : Нет

Аудио #3
Идентификатор : 4
Формат : AC-3
Формат/Информация : Audio Coding 3
Расширение режима : CM (complete main)
Параметр Endianness формата : Big
Идентификатор кодека : A_AC3
Продолжительность : 1 ч. 40 м.
Вид битрейта : Постоянный
Битрейт : 192 Кбит/сек
Каналы : 2 канала
Расположение каналов : Front: L R
Частота : 48,0 КГц
Битовая глубина : 16 бит
Метод сжатия : С потерями
Размер потока : 137 Мбайт (3%)
Заголовок : AVO (Алексей Михалёв)
Язык : Russian
Default : Нет
Forced : Нет

Аудио #4
Идентификатор : 5
Формат : AC-3
Формат/Информация : Audio Coding 3
Расширение режима : CM (complete main)
Параметр Endianness формата : Big
Идентификатор кодека : A_AC3
Продолжительность : 1 ч. 40 м.
Вид битрейта : Постоянный
Битрейт : 192 Кбит/сек
Каналы : 2 канала
Расположение каналов : Front: L R
Частота : 48,0 КГц
Битовая глубина : 16 бит
Метод сжатия : С потерями
Размер потока : 137 Мбайт (3%)
Заголовок : Original
Язык : English
Default : Нет
Forced : Нет

Текст #1
Идентификатор : 6
Формат : UTF-8
Идентификатор кодека : S_TEXT/UTF8
Идентификатор кодека/Информация : UTF-8 Plain Text
Заголовок : русский
Язык : Russian
Default : Нет
Forced : Нет

Текст #2
Идентификатор : 7
Формат : UTF-8
Идентификатор кодека : S_TEXT/UTF8
Идентификатор кодека/Информация : UTF-8 Plain Text
Заголовок : английский
Default : Нет
Forced : Нет

---[Information] [24.05.2014 12:14:19] raw [info]: 1280x690p 1:1 @ 24000/1001 fps (cfr)
---[Information] [24.05.2014 12:14:19] x264 [info]: using SAR=1/1
---[Information] [24.05.2014 12:14:19] x264 [info]: using cpu capabilities: MMX2 SSE2Fast SSSE3 SSE4.2
---[Information] [24.05.2014 12:14:19] x264 [info]: profile High, level 4.1
---[Information] [24.05.2014 19:56:08] x264 [info]: frame I:808 Avg QP:19.18 size: 95907
---[Information] [24.05.2014 19:56:08] x264 [info]: frame P:23320 Avg QP:20.28 size: 49147
---[Information] [24.05.2014 19:56:08] x264 [info]: frame B:119705 Avg QP:22.35 size: 23930
---[Information] [24.05.2014 19:56:08] x264 [info]: consecutive B-frames: 0.8% 0.4% 1.0% 6.3% 11.6% 38.1% 14.4% 11.0% 16.6%
---[Information] [24.05.2014 19:56:08] x264 [info]: mb I I16..4: 6.6% 83.9% 9.6%
---[Information] [24.05.2014 19:56:08] x264 [info]: mb P I16..4: 0.7% 18.8% 1.1% P16..4: 37.7% 27.7% 11.4% 0.0% 0.0% skip: 2.6%
---[Information] [24.05.2014 19:56:08] x264 [info]: mb B I16..4: 0.1% 2.1% 0.1% B16..8: 46.3% 14.0% 3.3% direct:10.0% skip:24.1% L0:47.1% L1:46.2% BI: 6.7%
---[Information] [24.05.2014 19:56:08] x264 [info]: 8x8 transform intra:91.2% inter:65.2%
---[Information] [24.05.2014 19:56:08] x264 [info]: coded y,uvDC,uvAC intra: 92.7% 69.1% 27.0% inter: 43.3% 24.6% 0.7%
---[Information] [24.05.2014 19:56:08] x264 [info]: i16 v,h,dc,p: 42% 15% 15% 28%
---[Information] [24.05.2014 19:56:08] x264 [info]: i8 v,h,dc,ddl,ddr,vr,hd,vl,hu: 12% 6% 12% 10% 13% 13% 11% 12% 12%
---[Information] [24.05.2014 19:56:08] x264 [info]: i4 v,h,dc,ddl,ddr,vr,hd,vl,hu: 27% 6% 4% 8% 12% 13% 11% 11% 10%
---[Information] [24.05.2014 19:56:08] x264 [info]: i8c dc,h,v,p: 34% 30% 22% 14%
---[Information] [24.05.2014 19:56:08] x264 [info]: Weighted P-Frames: Y:3.2% UV:1.7%
---[Information] [24.05.2014 19:56:08] x264 [info]: ref P L0: 38.6% 10.3% 19.2% 8.3% 7.2% 5.4% 4.9% 3.0% 2.9% 0.1% 0.0%
---[Information] [24.05.2014 19:56:08] x264 [info]: ref B L0: 61.2% 15.6% 9.3% 5.0% 3.8% 3.1% 1.6% 0.4%
---[Information] [24.05.2014 19:56:08] x264 [info]: ref B L1: 87.0% 13.0%
---[Information] [24.05.2014 19:56:08] x264 [info]: kb/s:5451.75
---[Information] [24.05.2014 19:56:08] encoded 143833 frames, 5.19 fps, 5451.75 kb/s
--[Information] [24.05.2014 19:56:09] Final statistics
---[Information] [24.05.2014 19:56:09] Constant Quality Mode: Quality 20 computed...
---[Information] [24.05.2014 19:56:09] Video Bitrate Obtained (approximate): 5453 kbit/s
--[Information] [24.05.2014 19:56:09] MediaInfo
---[Information] File: D:RipPjanj.1987x264.BDRipPjanj.1987x264.BDRip.720p.mkv

загрузка...
Правила, инструкции, FAQ!!!
Торрент  Добавлен [25 май 2014, 10:01] Скачать торрент
Скачать торрент
[ Размер 22.27 КБ / Просмотров 2 ]

Статус
Проверен 
 
Размер  4.35 ГБ
Приватный: Нет (DHT включён)
.torrent скачан  144
Как залить торрент? | Как скачать Torrent? | Как смотреть и слушать онлайн?  


     Отправить личное сообщение
   
Страница 1 из 1
Показать сообщения за:  Поле сортировки  
Начать новую тему Ответить на тему

   Похожие торренты   Автор   Ответы   Просмотры   Последнее сообщение 
В этой теме нет новых непрочитанных сообщений. Скачать торрент Неприкасаемые / The Untouchables (1987) BDRip 720p | Лицензия

в форуме 720p | 1080p, Размер: 3.65 ГБ, Здоровье: 0%

Anonymous

0
0|0

19
0

16 фев 2014, 22:15

Anonymous Перейти к последнему сообщению

В этой теме нет новых непрочитанных сообщений. Скачать торрент Пропащие ребята / The Lost Boys (1987) BDRip 720p | P, P2, A

в форуме 720p | 1080p, Размер: 5.12 ГБ, Здоровье: 0%

Anonymous

0
0|0

20
0

13 мар 2014, 14:28

Anonymous Перейти к последнему сообщению

В этой теме нет новых непрочитанных сообщений. Скачать торрент Свидание вслепую / Blind Date (1987) BDRip 720p

в форуме 720p | 1080p, Размер: 5.08 ГБ, Здоровье: 0%

Anonymous

0
0|0

34
0

21 янв 2014, 14:56

Anonymous Перейти к последнему сообщению

В этой теме нет новых непрочитанных сообщений. Скачать торрент Peter Gabriel - Live In Athens 1987 (2013) BDRip 720p

в форуме Концерты (HD-Video), Размер: 8 ГБ, Здоровье: 100%

Anonymous

0
5|1

70
14

23 янв 2014, 20:08

Anonymous Перейти к последнему сообщению

В этой теме нет новых непрочитанных сообщений. Скачать торрент Проверен Доброе утро, Вьетнам! / Good Morning, Vietnam! (1987) [720p] BDRip

в форуме 720p | 1080p, Размер: 8.19 ГБ, Здоровье: 100%

Anonymous

0
23|1

54
1

12 авг 2014, 23:32

Anonymous Перейти к последнему сообщению



Сейчас этот форум просматривают: нет зарегистрированных пользователей и гости: 1


Вы не можете начинать темы
Вы не можете отвечать на сообщения
Вы не можете редактировать свои сообщения
Вы не можете удалять свои сообщения
Вы не можете добавлять вложения

Перейти:  

!ВНИМАНИЕ!
 Ресурс не предоставляет электронные версии произведений, а занимается лишь коллекционированием и каталогизацией ссылок, присылаемых и публикуемых на форуме нашими читателями. Если вы являетесь правообладателем какого-либо представленного материала и не желаете чтобы ссылка на него находилась в нашем каталоге, свяжитесь с нами и мы незамедлительно удалим её. Файлы для обмена на трекере предоставлены пользователями сайта, и администрация не несёт ответственности за их содержание. Просьба не заливать файлы, защищенные авторскими правами, а также файлы нелегального содержания!