На всех торрентах на трекере установлена скидка на скачивание в размере 100 процентов(а).
 Возможность скачивания торрента НЕ зависит от ограничений при низком ратио, низком аплоаде, требуемом ратио или требуемом аплоаде.


Начать новую тему Ответить на тему
Статистика раздачи
Размер: 2.18 ГБ | Добавлен: 18 янв 2013, 17:40 | Скачали: 0
Сидеров: 0  [0 байт/сек]    Личеров: 0  [0 байт/сек]
Пред. тема | След. тема 

Автор
Сообщение

СообщениеДобавлено: 18 янв 2013, 17:40 

Информация о фильме
Название: Шкатулка проклятия
Оригинальное название: The Possession
Год выхода: 2012
Жанр: Ужасы, Триллер
Режиссер: Уле Борнедаль
В ролях: Джеффри Дин Морган, Наташа Калис, Кира Седжвик, Мэдисон Девенпорт, Роб ЛаБелль, Матисьяху, Джей Бразо, Грант Шоу, Нана Гбивонио, Анна Хэган

О фильме: Девочка покупает винтажную шкатулку на ярмарке в одном из соседних дворов. Поначалу родители не видят повода для беспокойства, когда их младшая дочь становится одержима новой игрушкой. Со временем поведение девочки становится все более странным, а реакции неожиданными, родители пытаются раскрыть секрет шкатулки. Они не подозревают, что в деревянной коробке живет злой дух, который творит страшные вещи со своими хозяевами — их было много и владели они этим «сокровищем» очень недолго. Отец девочки объединяется с бывшей женой в попытках найти способ снять проклятие с их ребенка.






Выпущено: США, Канада / Ghost House Pictures, North Box Production
Продолжительность: 01:32:13
Перевод: Дублированный [лицензия]
Субтитры: Русский, Английский (Full, SDH)




Файл
Формат: mkv
Кодек: MPEG-4 AVC/H.264
Качество: BDRip-AVC
Видео: 2484 Кбит/сек,1280x534
Аудио #1: Русский (Dolby AC3, 6 ch) 448 Кбит/сек
Аудио #2: Английский (Dolby AC3, 6 ch) 448 Кбит/сек




Общее
Уникальный идентификатор : 220742320127924230682866066537915484282 (0xA6116CA7A090E53DA64CFAC3A076087A)
Полное имя : Shkatulka.Proklytija.2012.D.x264.BDRip-MysTeRy.mkv
Формат : Matroska
Версия формата : Version 4 / Version 2
Размер файла : 2,18 Гбайт
Продолжительность : 1 ч. 32 м.
Общий поток : 3382 Кбит/сек
Название фильма : Shkatulka.Proklytija.2012.D.x264.BDRip-MysTeRy
Дата кодирования : UTC 2010-02-22 21:41:31
Программа кодирования : mkvmerge v5.9.0 ('On The Loose') built on Dec 9 2012 15:37:01
Библиотека кодирования : libebml v1.3.0 + libmatroska v1.4.0

Видео
Идентификатор : 1
Формат : AVC
Формат/Информация : Advanced Video Codec
Профиль формата : High@L4.1
Параметр CABAC формата : Да
Параметр ReFrames формата : 12 кадров
Идентификатор кодека : V_MPEG4/ISO/AVC
Продолжительность : 1 ч. 32 м.
Битрейт : 2484 Кбит/сек
Ширина : 1280 пикселей
Высота : 534 пикселя
Соотношение сторон : 2,40:1
Частота кадров : 23,976 кадра/сек
Цветовое пространство : YUV
Субдискретизация насыщенности : 4:2:0
Битовая глубина : 8 бит
Тип развёртки : Прогрессивная
Бит/(Пиксели*Кадры) : 0.152
Размер потока : 1,56 Гбайт (72%)
Заголовок : ENCODER........: MysTeRy
Библиотека кодирования : x264 core 125 r2208 d9d2288
Настройки программы : cabac=1 / ref=12 / deblock=1:-3:-3 / analyse=0x3:0x113 / me=umh / subme=11 / psy=1 / psy_rd=1.05:0.00 / mixed_ref=1 / me_range=32 / chroma_me=1 / trellis=2 / 8x8dct=1 / cqm=0 / deadzone=21,11 / fast_pskip=0 / chroma_qp_offset=-2 / threads=12 / lookahead_threads=2 / sliced_threads=0 / nr=0 / decimate=1 / interlaced=0 / bluray_compat=0 / constrained_intra=0 / bframes=10 / b_pyramid=2 / b_adapt=2 / b_bias=0 / direct=3 / weightb=1 / open_gop=0 / weightp=2 / keyint=250 / keyint_min=23 / scenecut=40 / intra_refresh=0 / rc_lookahead=40 / rc=2pass / mbtree=0 / bitrate=2484 / ratetol=1.0 / qcomp=0.70 / qpmin=10 / qpmax=69 / qpstep=4 / cplxblur=20.0 / qblur=0.5 / vbv_maxrate=50000 / vbv_bufsize=61400 / nal_hrd=none / ip_ratio=1.40 / pb_ratio=1.30 / aq=1:1.00
Язык : English
Default : Да
Forced : Нет
Основные цвета : BT.709-5, BT.1361, IEC 61966-2-4, SMPTE RP177
Характеристики трансфера : BT.709-5, BT.1361
Коэффициенты матрицы : BT.709-5, BT.1361, IEC 61966-2-4 709, SMPTE RP177

Аудио #1
Идентификатор : 2
Формат : AC-3
Формат/Информация : Audio Coding 3
Расширение режима : CM (complete main)
Идентификатор кодека : A_AC3
Продолжительность : 1 ч. 32 м.
Вид битрейта : Постоянный
Битрейт : 448 Кбит/сек
Каналы : 6 каналов
Расположение каналов : Front: L C R, Side: L R, LFE
Частота : 48,0 КГц
Битовая глубина : 16 бит
Метод сжатия : С потерями
Размер потока : 296 Мбайт (13%)
Заголовок : Dub
Язык : Russian
Default : Да
Forced : Нет

Аудио #2
Идентификатор : 3
Формат : AC-3
Формат/Информация : Audio Coding 3
Расширение режима : CM (complete main)
Идентификатор кодека : A_AC3
Продолжительность : 1 ч. 32 м.
Вид битрейта : Постоянный
Битрейт : 448 Кбит/сек
Каналы : 6 каналов
Расположение каналов : Front: L C R, Side: L R, LFE
Частота : 48,0 КГц
Битовая глубина : 16 бит
Метод сжатия : С потерями
Размер потока : 296 Мбайт (13%)
Заголовок : Original
Язык : English
Default : Нет
Forced : Нет

Текст #1
Идентификатор : 4
Формат : UTF-8
Идентификатор кодека : S_TEXT/UTF8
Идентификатор кодека/Информация : UTF-8 Plain Text
Заголовок : Полные
Язык : Russian
Default : Нет
Forced : Нет

Текст #2
Идентификатор : 5
Формат : UTF-8
Идентификатор кодека : S_TEXT/UTF8
Идентификатор кодека/Информация : UTF-8 Plain Text
Заголовок : Полные
Язык : English
Default : Нет
Forced : Нет

Текст #3
Идентификатор : 6
Формат : UTF-8
Идентификатор кодека : S_TEXT/UTF8
Идентификатор кодека/Информация : UTF-8 Plain Text
Заголовок : SDH
Язык : English
Default : Нет
Forced : Нет

Меню
00:00:00.000 : en:00:00:00.000
00:03:36.508 : en:00:03:36.508
00:08:00.313 : en:00:08:00.313
00:11:01.744 : en:00:11:01.744
00:13:24.721 : en:00:13:24.721
00:16:57.016 : en:00:16:57.016
00:20:51.250 : en:00:20:51.250
00:25:05.129 : en:00:25:05.129
00:30:09.975 : en:00:30:09.975
00:35:03.560 : en:00:35:03.560
00:39:06.177 : en:00:39:06.177
00:43:04.540 : en:00:43:04.540
00:46:16.816 : en:00:46:16.816
00:50:02.458 : en:00:50:02.458
00:52:48.707 : en:00:52:48.707
00:55:26.573 : en:00:55:26.573
00:57:09.926 : en:00:57:09.926
01:01:59.341 : en:01:01:59.341
01:05:47.569 : en:01:05:47.569
01:08:22.098 : en:01:08:22.098
01:12:05.404 : en:01:12:05.404
01:17:08.749 : en:01:17:08.749
01:24:01.912 : en:01:24:01.912
01:26:42.239 : en:01:26:42.239

x264 [info]: frame I:1096 Avg QP:17.34 size: 67363
x264 [info]: frame P:26847 Avg QP:18.31 size: 21374
x264 [info]: frame B:104729 Avg QP:19.27 size: 10219
x264 [info]: consecutive B-frames: 1.7% 4.1% 3.8% 15.2% 17.0% 38.4% 8.4% 4.5% 3.0% 2.3% 1.6%

загрузка...
Правила, инструкции, FAQ!!!
Торрент  Добавлен [18 янв 2013, 17:40] Скачать торрент
Скачать торрент
[ Размер 11.41 КБ / Просмотров 14 ]

Статус
Проверен 
 
Размер  2.18 ГБ
Приватный: Нет (DHT включён)
.torrent скачан  0
Как залить торрент? | Как скачать Torrent? | Как смотреть и слушать онлайн?  


     Отправить личное сообщение
   
Страница 1 из 1
Показать сообщения за:  Поле сортировки  
Начать новую тему Ответить на тему

   Похожие торренты   Автор   Ответы   Просмотры   Последнее сообщение 
В этой теме нет новых непрочитанных сообщений. Скачать торрент Шкатулка проклятия / The Possession (Уле Борнедаль / Ole Bornedal) [2012, США, ужасы, триллер, BDRip 1080p] Dub

в форуме 720p | 1080p, Размер: 9.42 ГБ, Здоровье: 0%

Anonymous

0
0|0

16
0

25 фев 2014, 22:40

Anonymous Перейти к последнему сообщению

В этой теме нет новых непрочитанных сообщений. Скачать торрент Проверен Шкатулка проклятия / The Possession (Уле Борнедаль / Ole Bornedal) [2012, США, Канада, ужасы, триллер, HDRip, 480p] Dub + Original + sub (rus, eng)

в форуме Фильмы для iPod, iPhone, iPad, Размер: 1.33 ГБ, Здоровье: 100%

Anonymous

0
5|2

10
0

11 май 2015, 01:29

Anonymous Перейти к последнему сообщению

В этой теме нет новых непрочитанных сообщений. Скачать торрент Шкатулка проклятия / Одержимость / The Possession (Уле Борнедаль / Ole Bornedal) [2012, США, Канада, ужасы, триллер, BDRemux 1080i] [Rus Transfer] Dub

в форуме 720p | 1080p, Размер: 18.6 ГБ, Здоровье: 100%

Anonymous

0
8|2

19
0

25 фев 2014, 22:40

Anonymous Перейти к последнему сообщению

В этой теме нет новых непрочитанных сообщений. Скачать торрент Мэрайа Мунди и шкатулка Мидаса / The Adventurer: The Curse of the Midas Box (2013) BDRip 720p | P | лицензия

в форуме 720p | 1080p, Размер: 5.12 ГБ, Здоровье: 0%

Anonymous

0
0|0

16
0

26 янв 2014, 08:43

Anonymous Перейти к последнему сообщению

В этой теме нет новых непрочитанных сообщений. Скачать торрент Проверен На грани / Man on a Ledge (2012) BDRip 720p | Лицензия

в форуме 720p | 1080p, Размер: 4.23 ГБ, Здоровье: 100%

Anonymous

0
43|2

13
545

19 июл 2014, 17:19

Anonymous Перейти к последнему сообщению



Сейчас этот форум просматривают: нет зарегистрированных пользователей и гости: 1


Вы не можете начинать темы
Вы не можете отвечать на сообщения
Вы не можете редактировать свои сообщения
Вы не можете удалять свои сообщения
Вы не можете добавлять вложения

Перейти:  

!ВНИМАНИЕ!
 Ресурс не предоставляет электронные версии произведений, а занимается лишь коллекционированием и каталогизацией ссылок, присылаемых и публикуемых на форуме нашими читателями. Если вы являетесь правообладателем какого-либо представленного материала и не желаете чтобы ссылка на него находилась в нашем каталоге, свяжитесь с нами и мы незамедлительно удалим её. Файлы для обмена на трекере предоставлены пользователями сайта, и администрация не несёт ответственности за их содержание. Просьба не заливать файлы, защищенные авторскими правами, а также файлы нелегального содержания!