На всех торрентах на трекере установлена скидка на скачивание в размере 100 процентов(а).
 Возможность скачивания торрента НЕ зависит от ограничений при низком ратио, низком аплоаде, требуемом ратио или требуемом аплоаде.


Начать новую тему Ответить на тему
Статистика раздачи
Размер: 7.57 ГБ | Добавлен: 17 янв 2013, 18:37 | Скачали: 0
Сидеров: 0  [0 байт/сек]    Личеров: 0  [0 байт/сек]
Пред. тема | След. тема 

Автор
Сообщение

СообщениеДобавлено: 17 янв 2013, 18:37 

Название: Руби Спаркс
Оригинальное название: Ruby Sparks
Год выхода: 2012
Жанр: фэнтези, мелодрама, комедия
Режиссер: Джонатан Дэйтон, Валери Фэрис

В ролях: Пол Дано, Зои Казан, Антонио Бандерас, Аннетт Бенинг, Стив Куган, Эллиот Гулд, Крис Мессина, Аасиф Мандви, Тони Тракс, Дебора Энн Уолл

О фильме:
Молодой, но уже успешный писатель переживает творческие и душевные муки: новый роман никак не выходит, музы все нет, да и вообще с девушками как-то не клеится. И вот, призвав на помощь остатки своей фантазии, Кэлвин придумывает себе девушку по имени Руби Спаркс — умницу, красавицу, спортсменку, короче говоря, идеал, а спустя неделю… обнаруживает этот идеал из плоти и крови на своем собственном диване. Уходить Руби явно не собирается, но вот кем она окажется — Галатеей или Белочкой?..



Выпущено: США / Bona Fide Productions, Fox Searchlight Pictures
Продолжительность: 01:44:06
Озвучивание: Дублированное [чистый звук]


Формат: MKV
Качество: BDRip 720p [EbP]
Видео: 9365 kb/s, 1280x694
Аудио: Russian: AC3, 192 kb/s (2 ch) / English: AC3, 640 kb/s (6 ch)
Субтитры: Russian, English [SDH]
Дополнительно: Сохранены оригинальные чаптеры как на Blu-Ray


General
Unique ID : 222242801938100328327144302019868224739 (0xA732681EA6E30924AB67042F6C59ECE3)
Complete name : E:Rubi.Sparks.2012.D.BDRip.720p.IRONCLUB.mkv
Format : Matroska
Format version : Version 2
File size : 7.57 GiB
Duration : 1h 44mn
Overall bit rate : 10.4 Mbps
Movie name : IRONCLUB
Encoded date : UTC 2013-01-17 13:05:34
Writing application : mkvmerge v5.2.0 ('I can't explain') built on Dec 18 2011 18:12:03
Writing library : libebml v1.2.3 + libmatroska v1.3.0

Video
ID : 1
Format : AVC
Format/Info : Advanced Video Codec
Format profile : High@L4.1
Format settings, CABAC : Yes
Format settings, ReFrames : 9 frames
Codec ID : V_MPEG4/ISO/AVC
Duration : 1h 44mn
Bit rate : 9 365 Kbps
Width : 1 280 pixels
Height : 694 pixels
Display aspect ratio : 1.85:1
Frame rate : 23.976 fps
Color space : YUV
Chroma subsampling : 4:2:0
Bit depth : 8 bits
Scan type : Progressive
Bits/(Pixel*Frame) : 0.440
Stream size : 6.81 GiB (90%)
Title : Ruby Sparks 2012 BluRay 720p BluRay DD5.1 x264-EbP
Writing library : x264 core 128 r2216 198a7ea
Encoding settings : cabac=1 / ref=9 / deblock=1:-3:-3 / analyse=0x3:0x113 / me=tesa / subme=9 / psy=1 / psy_rd=1.20:0.00 / mixed_ref=1 / me_range=16 / chroma_me=1 / trellis=2 / 8x8dct=1 / cqm=0 / deadzone=21,11 / fast_pskip=0 / chroma_qp_offset=-2 / threads=12 / lookahead_threads=2 / sliced_threads=0 / nr=0 / decimate=0 / interlaced=0 / bluray_compat=0 / constrained_intra=0 / bframes=7 / b_pyramid=2 / b_adapt=2 / b_bias=0 / direct=3 / weightb=1 / open_gop=0 / weightp=2 / keyint=250 / keyint_min=23 / scenecut=40 / intra_refresh=0 / rc=crf / mbtree=0 / crf=16.0 / qcomp=0.55 / qpmin=0 / qpmax=69 / qpstep=4 / ip_ratio=1.40 / pb_ratio=1.30 / aq=1:0.55
Language : English
Default : Yes
Forced : Yes
Matrix coefficients : BT.709-5, BT.1361, IEC 61966-2-4 709, SMPTE RP177

Audio #1
ID : 2
Format : AC-3
Format/Info : Audio Coding 3
Mode extension : CM (complete main)
Format settings, Endianness : Big
Codec ID : A_AC3
Duration : 1h 44mn
Bit rate mode : Constant
Bit rate : 192 Kbps
Channel(s) : 2 channels
Channel positions : Front: L R
Sampling rate : 48.0 KHz
Bit depth : 16 bits
Compression mode : Lossy
Stream size : 143 MiB (2%)
Title : DD 2.0 @ 192 kbps - Dub
Language : Russian
Default : Yes
Forced : Yes

Audio #2
ID : 3
Format : AC-3
Format/Info : Audio Coding 3
Mode extension : CM (complete main)
Format settings, Endianness : Big
Codec ID : A_AC3
Duration : 1h 44mn
Bit rate mode : Constant
Bit rate : 640 Kbps
Channel(s) : 6 channels
Channel positions : Front: L C R, Side: L R, LFE
Sampling rate : 48.0 KHz
Bit depth : 16 bits
Compression mode : Lossy
Stream size : 477 MiB (6%)
Title : DD 5.1 @ 640 kbps
Language : English
Default : No
Forced : No

Text #1
ID : 4
Format : UTF-8
Codec ID : S_TEXT/UTF8
Codec ID/Info : UTF-8 Plain Text
Language : Russian
Default : No
Forced : No

Text #2
ID : 5
Format : UTF-8
Codec ID : S_TEXT/UTF8
Codec ID/Info : UTF-8 Plain Text
Title : English SDH
Language : English
Default : No
Forced : No

Menu
00:00:00.000 : en:00:00:00.000
00:06:06.700 : en:00:06:06.700
00:10:14.989 : en:00:10:14.989
00:13:31.227 : en:00:13:31.227
00:16:21.480 : en:00:16:21.480
00:20:16.841 : en:00:20:16.841
00:23:11.223 : en:00:23:11.223
00:28:19.531 : en:00:28:19.531
00:32:21.731 : en:00:32:21.731
00:35:40.805 : en:00:35:40.805
00:39:57.478 : en:00:39:57.478
00:43:04.540 : en:00:43:04.540
00:46:10.851 : en:00:46:10.851
00:51:42.266 : en:00:51:42.266
00:55:39.378 : en:00:55:39.378
00:58:41.727 : en:00:58:41.727
01:02:51.476 : en:01:02:51.476
01:07:18.493 : en:01:07:18.493
01:13:06.465 : en:01:13:06.465
01:18:41.592 : en:01:18:41.592
01:24:02.996 : en:01:24:02.996
01:32:48.229 : en:01:32:48.229
01:37:07.655 : en:01:37:07.655
01:39:40.474 : en:01:39:40.474


загрузка...
Правила, инструкции, FAQ!!!
Торрент  Добавлен [17 янв 2013, 18:37] Скачать торрент
Скачать торрент
[ Размер 38.2 КБ / Просмотров 18 ]

Статус
Проверен 
 
Размер  7.57 ГБ
Приватный: Нет (DHT включён)
.torrent скачан  0
Как залить торрент? | Как скачать Torrent? | Как смотреть и слушать онлайн?  


     Отправить личное сообщение
   
Страница 1 из 1
Показать сообщения за:  Поле сортировки  
Начать новую тему Ответить на тему

   Похожие торренты   Автор   Ответы   Просмотры   Последнее сообщение 
В этой теме нет новых непрочитанных сообщений. Скачать торрент Руби Спаркс / Ruby Sparks (2012) HDRip | D | Лицензия

в форуме Фантастика, Фэнтези, Размер: 1.4 ГБ, Здоровье: 100%

Anonymous

0
14|3

54
114

10 дек 2013, 09:09

Anonymous Перейти к последнему сообщению

В этой теме нет новых непрочитанных сообщений. Скачать торрент Спаркс / Sparks (2013) BDRip 720p | L2

в форуме 720p | 1080p, Размер: 5.4 ГБ, Здоровье: 100%

Anonymous

0
7|0

19
49

13 апр 2014, 00:04

Anonymous Перейти к последнему сообщению

В этой теме нет новых непрочитанных сообщений. Скачать торрент Проверен Рио 2 / Rio 2 (2014) BDRip 720p | Чистый звук

в форуме Зарубежные мультфильмы (HD Video), Размер: 4.64 ГБ, Здоровье: 0%

Anonymous

0
0|0

907
0

28 июн 2014, 17:39

Anonymous Перейти к последнему сообщению

В этой теме нет новых непрочитанных сообщений. Ной / Noah (2014) BDRip 720p | Чистый звук

в форуме Новинки кино, Размер: 6.88 ГБ, Здоровье: 100%

Anonymous

0
65|1

409
10

07 июл 2014, 15:21

Anonymous Перейти к последнему сообщению

В этой теме нет новых непрочитанных сообщений. Скачать торрент Проверен Джезабель / Jessabelle (2014) BDRip 720p | Чистый звук

в форуме 720p | 1080p, Размер: 6.56 ГБ, Здоровье: 100%

Anonymous

0
936|391

167
3046

03 апр 2015, 20:41

Anonymous Перейти к последнему сообщению



Сейчас этот форум просматривают: нет зарегистрированных пользователей и гости: 4


Вы не можете начинать темы
Вы не можете отвечать на сообщения
Вы не можете редактировать свои сообщения
Вы не можете удалять свои сообщения
Вы не можете добавлять вложения

Перейти:  

!ВНИМАНИЕ!
 Ресурс не предоставляет электронные версии произведений, а занимается лишь коллекционированием и каталогизацией ссылок, присылаемых и публикуемых на форуме нашими читателями. Если вы являетесь правообладателем какого-либо представленного материала и не желаете чтобы ссылка на него находилась в нашем каталоге, свяжитесь с нами и мы незамедлительно удалим её. Файлы для обмена на трекере предоставлены пользователями сайта, и администрация не несёт ответственности за их содержание. Просьба не заливать файлы, защищенные авторскими правами, а также файлы нелегального содержания!