На всех торрентах на трекере установлена скидка на скачивание в размере 100 процентов(а).
 Возможность скачивания торрента НЕ зависит от ограничений при низком ратио, низком аплоаде, требуемом ратио или требуемом аплоаде.


Начать новую тему Ответить на тему
Статистика раздачи
Размер: 7.93 ГБ | Добавлен: 22 май 2014, 06:17 | Скачали: 0
Сидеров: 0  [0 байт/сек]    Личеров: 0  [0 байт/сек]
Пред. тема | След. тема 

Автор
Сообщение

СообщениеДобавлено: 22 май 2014, 06:17 

Название: Анатомия любви
Оригинальное название: Endless Love
Год выхода: 2014
Жанр: драма, мелодрама
Режиссер: Шана Фест

В ролях: Алекс Петтифер, Габриэлла Уайлд, Брюс Гринвуд, Джоэли Ричардсон, Роберт Патрик, Риз Уэйкфилд, Дайо Окенайи, Эмма Ригби, Анна Энгер, Фаббианн Терез

Вкратце
Он — далеко не ангел, высокий дерзкий парень, помешанный на тачках. Она — примерная ученица, белокурая красотка из богатой семьи. Их любовь под запретом, а потому вдвойне желанна. Страсть сжигает их дотла и бросает в бездну.



Выпущено: США
Продолжительность: 01:44:38
Озвучивание: Дублированное [лицензия]


Формат: MKV
Качество: BDRip 1080p
Видео: MPEG-4 AVC, 8 955 Кбит/с, 1920x816
Аудио: Русский (AC3, 6 ch, 384 Кбит/с), английский (DTS, 6 ch, 1510 кбит/c)

Субтитры: Английские
Скачать: Сэмпл

General
Complete name : Anatomiya.Lubvi.2014.D.BDRip.1080p_.mkv
Format : Matroska
File size : 7.93 GiB
Duration : 1h 44mn
Overall bit rate : 10.8 Mbps
Encoded date : UTC 2014-05-21 18:36:01
Writing application : mkvmerge v6.5.0 ('Isn't she lovely') built on Oct 20 2013 12:50:05
Writing library : libebml v1.3.0 + libmatroska v1.4.1

Video
ID : 1
Format : AVC
Format/Info : Advanced Video Codec
Format profile : High@L4.1
Format settings, CABAC : Yes
Format settings, ReFrames : 5 frames
Format settings, GOP : M=4, N=16
Muxing mode : Container profile=Unknown@4.1
Codec ID : V_MPEG4/ISO/AVC
Duration : 1h 44mn
Bit rate : 8 955 Kbps
Width : 1 920 pixels
Height : 816 pixels
Display aspect ratio : 2.35:1
Frame rate : 23.976 fps
Color space : YUV
Chroma subsampling : 4:2:0
Bit depth : 8 bits
Scan type : Progressive
Bits/(Pixel*Frame) : 0.238
Stream size : 6.38 GiB (81%)
Writing library : x264 core 142 r2431 ac76440
Encoding settings : cabac=1 / ref=5 / deblock=1:0:0 / analyse=0x3:0x133 / me=umh / subme=7 / psy=1 / psy_rd=1.00:0.00 / mixed_ref=1 / me_range=16 / chroma_me=1 / trellis=1 / 8x8dct=1 / cqm=0 / deadzone=21,11 / fast_pskip=0 / chroma_qp_offset=-2 / threads=12 / lookahead_threads=2 / sliced_threads=0 / nr=0 / decimate=1 / interlaced=0 / bluray_compat=0 / constrained_intra=0 / bframes=3 / b_pyramid=2 / b_adapt=1 / b_bias=0 / direct=1 / weightb=1 / open_gop=0 / weightp=2 / keyint=250 / keyint_min=23 / scenecut=40 / intra_refresh=0 / rc_lookahead=40 / rc=2pass / mbtree=1 / bitrate=8955 / ratetol=1.0 / qcomp=0.60 / qpmin=0 / qpmax=69 / qpstep=4 / cplxblur=20.0 / qblur=0.5 / ip_ratio=1.40 / aq=1:1.00

Audio #1
ID : 2
Format : AC-3
Format/Info : Audio Coding 3
Mode extension : CM (complete main)
Codec ID : A_AC3
Duration : 1h 44mn
Bit rate mode : Constant
Bit rate : 384 Kbps
Channel(s) : 6 channels
Channel positions : Front: L C R, Side: L R, LFE
Sampling rate : 48.0 KHz
Bit depth : 16 bits
Stream size : 287 MiB (4%)

Audio #2
ID : 3
Format : DTS
Format/Info : Digital Theater Systems
Codec ID : A_DTS
Duration : 1h 44mn
Bit rate mode : Constant
Bit rate : 1 510 Kbps
Channel(s) : 6 channels
Channel positions : Front: L C R, Side: L R, LFE
Sampling rate : 48.0 KHz
Bit depth : 24 bits
Stream size : 1.10 GiB (14%)

Menu
00:00:00.000 : en:00:00:00.000
00:05:46.221 : en:00:05:46.221
00:11:45.163 : en:00:11:45.163
00:15:51.534 : en:00:15:51.534
00:19:43.724 : en:00:19:43.724
00:25:26.817 : en:00:25:26.817
00:29:42.990 : en:00:29:42.990
00:35:30.670 : en:00:35:30.670
00:39:56.644 : en:00:39:56.644
00:45:14.211 : en:00:45:14.211
00:49:02.022 : en:00:49:02.022
00:54:55.918 : en:00:54:55.918
00:59:51.588 : en:00:59:51.588
01:04:43.213 : en:01:04:43.213
01:10:01.948 : en:01:10:01.948
01:16:55.986 : en:01:16:55.986
01:23:17.034 : en:01:23:17.034
01:29:33.994 : en:01:29:33.994
01:35:54.082 : en:01:35:54.082
01:39:26.752 : en:01:39:26.752





загрузка...
Правила, инструкции, FAQ!!!
Торрент  Добавлен [22 май 2014, 06:17] Скачать торрент
Скачать торрент
[ Размер 40.21 КБ / Просмотров 7 ]

Статус
Проверен 
 
Размер  7.93 ГБ
Приватный: Нет (DHT включён)
.torrent скачан  0
Как залить торрент? | Как скачать Torrent? | Как смотреть и слушать онлайн?  


     Отправить личное сообщение
   
Страница 1 из 1
Показать сообщения за:  Поле сортировки  
Начать новую тему Ответить на тему

   Похожие торренты   Автор   Ответы   Просмотры   Последнее сообщение 
В этой теме нет новых непрочитанных сообщений. Скачать торрент Проверен Анатомия любви / Endless Love (2014) BDRip 720p | iTunes

в форуме 720p | 1080p, Размер: 6.43 ГБ, Здоровье: 100%

Anonymous

0
34|0

22
362

21 май 2014, 22:39

Anonymous Перейти к последнему сообщению

В этой теме нет новых непрочитанных сообщений. Скачать торрент Проверен Анатомия любви / Endless Love (2014) HDRip | iTunes

в форуме Драмы, Мелодрамы, Размер: 1.37 ГБ, Здоровье: 0%

Anonymous

0
0|0

27
0

21 май 2014, 22:33

Anonymous Перейти к последнему сообщению

В этой теме нет новых непрочитанных сообщений. Скачать торрент Проверен Сумасшедший вид любви / Crazy Kind of Love (2013) BDRip 1080p | L1

в форуме 720p | 1080p, Размер: 3.38 ГБ, Здоровье: 100%

Anonymous

0
5|1

45
336

06 авг 2014, 18:02

Anonymous Перейти к последнему сообщению

В этой теме нет новых непрочитанных сообщений. Скачать торрент Проверен Как украсть бриллиант / Love Punch (2013) BDRip 1080p | iTunes

в форуме 720p | 1080p, Размер: 8.17 ГБ, Здоровье: 69%

Гость

0
46|66

16
96

30 ноя 2014, 10:16

Гость Перейти к последнему сообщению

В этой теме нет новых непрочитанных сообщений. Дивергент / Divergent (2014) BDRip 1080p | iTunes

в форуме Новинки кино, Размер: 10.21 ГБ, Здоровье: 100%

Anonymous

0
53|2

201
11

23 июл 2014, 15:43

Anonymous Перейти к последнему сообщению



Сейчас этот форум просматривают: нет зарегистрированных пользователей и гости: 2


Вы не можете начинать темы
Вы не можете отвечать на сообщения
Вы не можете редактировать свои сообщения
Вы не можете удалять свои сообщения
Вы не можете добавлять вложения

Перейти:  

!ВНИМАНИЕ!
 Ресурс не предоставляет электронные версии произведений, а занимается лишь коллекционированием и каталогизацией ссылок, присылаемых и публикуемых на форуме нашими читателями. Если вы являетесь правообладателем какого-либо представленного материала и не желаете чтобы ссылка на него находилась в нашем каталоге, свяжитесь с нами и мы незамедлительно удалим её. Файлы для обмена на трекере предоставлены пользователями сайта, и администрация не несёт ответственности за их содержание. Просьба не заливать файлы, защищенные авторскими правами, а также файлы нелегального содержания!