На всех торрентах на трекере установлена скидка на скачивание в размере 100 процентов(а).
 Возможность скачивания торрента НЕ зависит от ограничений при низком ратио, низком аплоаде, требуемом ратио или требуемом аплоаде.


Начать новую тему Ответить на тему
Статистика раздачи
Размер: 5.75 ГБ | Добавлен: 21 май 2014, 21:21 | Скачали: 21
Сидеров: 0  [0 байт/сек]    Личеров: 0  [0 байт/сек]
Пред. тема | След. тема 

Автор
Сообщение

СообщениеДобавлено: 21 май 2014, 21:21 

Информация о фильме
Название: Колетт
Оригинальное название: Colette
Год выхода: 2013
Жанр: драма, мелодрама, военный, история
Режиссер: Милан Цислар
В ролях: Иржи Мадл, Клеменс Тиоли, Иржи Бартошка, Эрик Баувер, Йереми Дюран, Хелена Дворакова, Андрей Хрыч, Барбора Кодетова
О фильме: Арношт Лустиг был одним из самых известных в мире литературных авторов своего времени. Роман Лустига "Девушка из Антверпена", на котором основывается фильм "Колетт", опирается на личный опыт автора в нацистском концентрационном лагере и его собственных воспоминаниях о нескольких попытках вырваться из ада Освенцима. История номинировалась на Пулитцеровскую премию. Фильм о силе любви в экстремальных жизненных обстоятельствах. Это история молодых влюбленных, их решимости вырваться из безнадежного состояния, их мужестве перед лицом смерти.



Выпущено: Словакия, Чехия
Продолжительность: 02:04:49
Перевод: Любительский (одноголосый, закадровый) - Lenape
Файл
Качество: BDRip 720p
Формат: MKV
Видео: MPEG4/AVC, 1280х536 (2.40:1), 5188 Кбит/сек, 24.000 кадра/сек
Аудио 1: AC3, 6 каналов, 640 Кбит/сек | Lenape
Аудио 2: AC3, 6 каналов, 640 Кбит/сек | Английский
Субтитры: Русские
Навигация по главам: Есть
Общее
Уникальный идентификатор : 253718483620266640145248955600701958465 (0xBEE0670A8F4D7A62986C4E790A532941)
Полное имя : Colette. (2013) BDRip 720p.mkv
Формат : Matroska
Версия формата : Version 2
Размер файла : 5,75 Гбайт
Продолжительность : 2 ч. 4 м.
Общий поток : 6599 Кбит/сек
Название фильма : Colette [720p] [2013] VO
Дата кодирования : UTC 2014-05-21 11:50:27
Программа кодирования : mkvmerge v5.8.0 ('No Sleep / Pillow') built on Sep 2 2012 15:37:04
Библиотека кодирования : libebml v1.2.3 + libmatroska v1.3.0
Видео
Идентификатор : 1
Формат : AVC
Формат/Информация : Advanced Video Codec
Профиль формата : High@L4.1
Параметр CABAC формата : Да
Параметр ReFrames формата : 12 кадров
Идентификатор кодека : V_MPEG4/ISO/AVC
Продолжительность : 2 ч. 4 м.
Битрейт : 5188 Кбит/сек
Ширина : 1280 пикселей
Высота : 536 пикселей
Соотношение сторон : 2,40:1
Режим частоты кадров : Постоянный
Частота кадров : 24,000 кадра/сек
Цветовое пространство : YUV
Субдискретизация насыщенности : 4:2:0
Битовая глубина : 8 бит
Тип развёртки : Прогрессивная
Бит/(Пиксели*Кадры) : 0.315
Размер потока : 4,52 Гбайт (79%)
Заголовок : PHD
Язык : English
Default : Да
Forced : Нет
Аудио #1
Идентификатор : 2
Формат : AC-3
Формат/Информация : Audio Coding 3
Расширение режима : CM (complete main)
Параметр Endianness формата : Big
Идентификатор кодека : A_AC3
Продолжительность : 2 ч. 4 м.
Вид битрейта : Постоянный
Битрейт : 640 Кбит/сек
Каналы : 6 каналов
Расположение каналов : Front: L C R, Side: L R, LFE
Частота : 48,0 КГц
Битовая глубина : 16 бит
Метод сжатия : С потерями
Размер потока : 571 Мбайт (10%)
Заголовок : Lenape
Язык : Russian
Default : Да
Forced : Нет
Аудио #2
Идентификатор : 3
Формат : AC-3
Формат/Информация : Audio Coding 3
Расширение режима : CM (complete main)
Параметр Endianness формата : Big
Идентификатор кодека : A_AC3
Продолжительность : 2 ч. 4 м.
Вид битрейта : Постоянный
Битрейт : 640 Кбит/сек
Каналы : 6 каналов
Расположение каналов : Front: L C R, Side: L R, LFE
Частота : 48,0 КГц
Битовая глубина : 16 бит
Метод сжатия : С потерями
Размер потока : 571 Мбайт (10%)
Заголовок : Eng
Язык : English
Default : Нет
Forced : Нет
Текст
Идентификатор : 4
Формат : UTF-8
Идентификатор кодека : S_TEXT/UTF8
Идентификатор кодека/Информация : UTF-8 Plain Text
Заголовок : Rus
Язык : Russian
Default : Нет
Forced : Нет
Меню
00:00:00.000 : en:00:00:00.000
00:09:38.792 : en:00:09:38.792
00:24:44.583 : en:00:24:44.583
00:39:10.417 : en:00:39:10.417
00:50:28.917 : en:00:50:28.917
01:07:15.583 : en:01:07:15.583
01:18:39.833 : en:01:18:39.833
01:29:40.458 : en:01:29:40.458
01:43:29.958 : en:01:43:29.958
01:50:55.458 : en:01:50:55.458


Релиз от:
загрузка...
Правила, инструкции, FAQ!!!
Торрент  Добавлен [21 май 2014, 21:21] Скачать торрент
Скачать торрент
[ Размер 15.09 КБ / Просмотров 4 ]

Статус
Проверен 
 
Размер  5.75 ГБ
Приватный: Нет (DHT включён)
.torrent скачан  21
Как залить торрент? | Как скачать Torrent? | Как смотреть и слушать онлайн?  


     Отправить личное сообщение
   
Страница 1 из 1
Показать сообщения за:  Поле сортировки  
Начать новую тему Ответить на тему

   Похожие торренты   Автор   Ответы   Просмотры   Последнее сообщение 
В этой теме нет новых непрочитанных сообщений. Скачать торрент Проверен Colette Peters - Colette's Wedding Cakes / Свадебные торты Колетт [1995, PDF, ENG]

в форуме Кулинария, Размер: 49.45 МБ, Здоровье: 0%

Anonymous

0
0|0

0
0

19 окт 2016, 23:51

Anonymous Перейти к последнему сообщению

В этой теме нет новых непрочитанных сообщений. Скачать торрент Проверен Колетт / Colette (2013) HDRip | L1

в форуме Драмы, Мелодрамы, Размер: 2.19 ГБ, Здоровье: 100%

Anonymous

0
23|3

17
427

21 май 2014, 21:18

Anonymous Перейти к последнему сообщению

В этой теме нет новых непрочитанных сообщений. Скачать торрент Проверен Peters С. / Питерс К. - Colette's Birthday Cakes / Торты Колетт ко дню рождения [2000, DjVu, ENG]

в форуме Кулинария, Размер: 26.94 МБ, Здоровье: 0%

Anonymous

0
0|0

0
0

19 окт 2016, 23:51

Anonymous Перейти к последнему сообщению

В этой теме нет новых непрочитанных сообщений. Скачать торрент Проверен Peters С. / Питерс К. - Colette's Cakes: The Art of Cake Decorating / Торты Колетт: Искусство украшения тортов [1991, DjVu, ENG]

в форуме Кулинария, Размер: 14.62 МБ, Здоровье: 100%

Anonymous

0
7|2

0
0

19 окт 2016, 23:33

Anonymous Перейти к последнему сообщению

В этой теме нет новых непрочитанных сообщений. Скачать торрент Проверен (Alternative Hip-Hop, Pop Rap, Pop R&B) Colette Carr - 2013 - Skitszo, part 2 (EP), FLAC (tracks), lossless [WEB]

в форуме Зарубежная музыка, Размер: 86.25 МБ, Здоровье: 100%

Гость

0
2|1

5
0

12 авг 2016, 21:18

Гость Перейти к последнему сообщению



Сейчас этот форум просматривают: нет зарегистрированных пользователей и гости: 3


Вы не можете начинать темы
Вы не можете отвечать на сообщения
Вы не можете редактировать свои сообщения
Вы не можете удалять свои сообщения
Вы не можете добавлять вложения

Перейти:  

!ВНИМАНИЕ!
 Ресурс не предоставляет электронные версии произведений, а занимается лишь коллекционированием и каталогизацией ссылок, присылаемых и публикуемых на форуме нашими читателями. Если вы являетесь правообладателем какого-либо представленного материала и не желаете чтобы ссылка на него находилась в нашем каталоге, свяжитесь с нами и мы незамедлительно удалим её. Файлы для обмена на трекере предоставлены пользователями сайта, и администрация не несёт ответственности за их содержание. Просьба не заливать файлы, защищенные авторскими правами, а также файлы нелегального содержания!