На всех торрентах на трекере установлена скидка на скачивание в размере 100 процентов(а).
 Возможность скачивания торрента НЕ зависит от ограничений при низком ратио, низком аплоаде, требуемом ратио или требуемом аплоаде.


Начать новую тему Ответить на тему
Статистика раздачи
Размер: 6.27 ГБ | Добавлен: 18 дек 2014, 23:55 | Скачали: 93
Сидеров: 38  [0 байт/сек]    Личеров: 3  [0 байт/сек]
Пред. тема | След. тема 

Автор
Сообщение

СообщениеДобавлено: 21 май 2014, 16:45 

Название: Теория заговора
Оригинальное название: Zulu
Год выхода: 2013
Жанр: триллер, драма, криминал
Режиссер: Жером Салль

В ролях: Орландо Блум, Форест Уитакер, Таня ван Граан, Наташа Лоринг, Роксанна Прентис, Патрик Листер, Свен Рюйгрок, Келси Иган, Конрад Кемп, Лизе Слэббер

О фильме:
Считается, что в Южной Африке уже двадцать лет как отказались от политики апартеида – принудительного разделения населения по расовому признаку. К сожалению, героям криминального триллера Теория заговора, – двоим полицейских, живущим в Кейптауне, отлично известно, что дискриминация по-прежнему проявляется повсюду в этом городе. В поисках убийцы молодой девушки герои побывают и в элитных кварталах в центре мегаполиса, и в негритянских трущобах. Это расследование заставит полицейских усомниться в правильности своих жизненных ценностей и вынудит бороться с их потаенными страхами.



Выпущено: Франция, ЮАР
Продолжительность: 01:46:42
Озвучивание: Профессиональное (двухголосое) [Пиратская Студия]
Любительское (одноголосое) [datynet]


Формат: MKV
Качество: BDRip 1080p [MarGe]
Видео: 8091 kb/s, 1920x804
Аудио:
Russian: [Пиратская Студия]: AC3, 448 kb/s (6 ch)
Russian: [datynet]: AC3, 192 kb/s (2 ch)
English: DTS, 1510 kb/s (6 ch)
Субтитры: English
Дополнительно: Сохранены оригинальные чаптеры как на Blu-Ray
Скачать: Сэмпл

Релиз группы:



Общее
Zulu.2013.Blu.Ray.1080p.CINEMANIA.mkv
Формат : Matroska
Версия формата : Version 4 / Version 2
Размер файла : 6,27 Гбайт
Продолжительность : 1 ч. 46 м.
Общий поток : 8408 Кбит/сек
Название фильма : Release Group CINEMANIA
Дата кодирования : UTC 2014-05-26 21:23:41
Программа кодирования : mkvmerge v6.9.1 ('Blue Panther') 64bit built on Apr 18 2014 18:23:38
Библиотека кодирования : libebml v1.3.0 + libmatroska v1.4.1

Видео
Идентификатор : 1
Формат : AVC
Формат/Информация : Advanced Video Codec
Профиль формата : High@L4.1
Параметр CABAC формата : Да
Параметр ReFrames формата : 5 кадров
Идентификатор кодека : V_MPEG4/ISO/AVC
Продолжительность : 1 ч. 46 м.
Битрейт : 8091 Кбит/сек
Ширина : 1920 пикселей
Высота : 804 пикселя
Соотношение сторон : 2,40:1
Режим частоты кадров : Постоянный
Частота кадров : 24,000 кадра/сек
Цветовое пространство : YUV
Субдискретизация насыщенности : 4:2:0
Битовая глубина : 8 бит
Тип развёртки : Прогрессивная
Бит/(Пиксели*Кадры) : 0.164
Размер потока : 4,54 Гбайт (72%)
Заголовок : Release Group CINEMANIA
Библиотека кодирования : x264 core 138 r2358 9e941d1
Настройки программы : cabac=1 / ref=5 / deblock=1:-3:-3 / analyse=0x3:0x133 / me=umh / subme=10 / psy=1 / psy_rd=1.02:0.05 / mixed_ref=0 / me_range=32 / chroma_me=1 / trellis=2 / 8x8dct=1 / cqm=0 / deadzone=21,11 / fast_pskip=0 / chroma_qp_offset=-2 / threads=12/ lookahead_threads=1 / sliced_threads=0 / nr=0 / decimate=1 / interlaced=0 / bluray_compat=0 / constrained_intra=0 / bframes=8 / b_pyramid=2 / b_adapt=2 / b_bias=0 / direct=2 / weightb=1 / open_gop=0 / weightp=2 / keyint=240 / keyint_min=24 / scenecut=40 / intra_refresh=0 / rc_lookahead=60 / rc=crf / mbtree=1 / crf=17.5 / qcomp=0.60 / qpmin=0 / qpmax=69 / qpstep=4 / vbv_maxrate=50000 / vbv_bufsize=62500 / crf_max=0.0 / nal_hrd=none / ip_ratio=1.40 / aq=1:1.00
Язык : English
Default : Да
Forced : Нет

Аудио #1
Идентификатор : 2
Формат : AC-3
Формат/Информация : Audio Coding 3
Расширение режима : CM (complete main)
Параметр Endianness формата : Big
Идентификатор кодека : A_AC3
Продолжительность : 1 ч. 46 м.
Вид битрейта : Постоянный
Битрейт : 448 Кбит/сек
Каналы : 6 каналов
Расположение каналов : Front: L C R, Side: L R, LFE
Частота : 48,0 КГц
Битовая глубина : 16 бит
Метод сжатия : С потерями
Размер потока : 342 Мбайт (5%)
Заголовок : Пиратская Студия
Язык : Russian
Default : Да
Forced : Да

Аудио #2
Идентификатор : 3
Формат : AC-3
Формат/Информация : Audio Coding 3
Расширение режима : CM (complete main)
Параметр Endianness формата : Big
Идентификатор кодека : A_AC3
Продолжительность : 1 ч. 46 м.
Вид битрейта : Постоянный
Битрейт : 192 Кбит/сек
Каналы : 2 канала
Расположение каналов : Front: L R
Частота : 44,1 КГц
Битовая глубина : 16 бит
Метод сжатия : С потерями
Размер потока : 147 Мбайт (2%)
Заголовок : datynet
Язык : Russian
Default : Нет
Forced : Нет

Аудио #3
Идентификатор : 4
Формат : DTS
Формат/Информация : Digital Theater Systems
Режим : 16
Параметр Endianness формата : Big
Идентификатор кодека : A_DTS
Продолжительность : 1 ч. 46 м.
Вид битрейта : Постоянный
Битрейт : 1509 Кбит/сек
Каналы : 6 каналов
Расположение каналов : Front: L C R, Side: L R, LFE
Частота : 48,0 КГц
Битовая глубина : 24 бит
Метод сжатия : С потерями
Размер потока : 1,12 Гбайт (18%)
Язык : English
Default : Нет
Forced : Нет

Текст
Идентификатор : 5
Формат : UTF-8
Идентификатор кодека : S_TEXT/UTF8
Идентификатор кодека/Информация : UTF-8 Plain Text
Язык : English
Default : Нет
Forced : Нет

Меню
00:00:00.000 : en:00:00:00.000
00:07:30.792 : en:00:07:30.792
00:11:38.000 : en:00:11:38.000
00:18:56.542 : en:00:18:56.542
00:24:27.542 : en:00:24:27.542
00:33:06.542 : en:00:33:06.542
00:39:21.875 : en:00:39:21.875
00:45:32.125 : en:00:45:32.125
00:52:12.458 : en:00:52:12.458
00:59:17.000 : en:00:59:17.000
01:02:42.750 : en:01:02:42.750
01:10:39.833 : en:01:10:39.833
01:16:03.375 : en:01:16:03.375
01:23:05.500 : en:01:23:05.500
01:29:59.625 : en:01:29:59.625
01:42:30.750 : en:01:42:30.750
загрузка...
Правила, инструкции, FAQ!!!
Торрент  Добавлен [18 дек 2014, 23:55] Скачать торрент
Скачать торрент
[ Размер 31.9 КБ / Просмотров 8 ]

Статус
Проверен 
 
Размер  6.27 ГБ
Приватный: Нет (DHT включён)
.torrent скачан  93
Как залить торрент? | Как скачать Torrent? | Как смотреть и слушать онлайн?  


     Отправить личное сообщение
   
Страница 1 из 1
Показать сообщения за:  Поле сортировки  
Начать новую тему Ответить на тему

   Похожие торренты   Автор   Ответы   Просмотры   Последнее сообщение 
В этой теме нет новых непрочитанных сообщений. Скачать торрент Проверен Теория заговора / Zulu (2013) BDRip 720p | P, P2, L1

в форуме 720p | 1080p, Размер: 2.73 ГБ, Здоровье: 100%

Гость

0
3|0

60
0

18 дек 2014, 23:59

Гость Перейти к последнему сообщению

В этой теме нет новых непрочитанных сообщений. Скачать торрент Проверен Теория заговора / Zulu (2013) HDRip | L1

в форуме Триллеры, Размер: 1.34 ГБ, Здоровье: 0%

Anonymous

0
0|0

91
0

21 май 2014, 16:27

Anonymous Перейти к последнему сообщению

В этой теме нет новых непрочитанных сообщений. Скачать торрент Проверен Теория заговора. Еда быстрого приготовления (2015) HDTVRip

в форуме Документальные, Размер: 629.83 МБ, Здоровье: 100%

Anonymous

0
1227|449

102
853

17 май 2015, 13:51

Anonymous Перейти к последнему сообщению

В этой теме нет новых непрочитанных сообщений. Закрыто правообладателем Теория Заговора. Полуфабрикаты (2015) HDTVRip 720p Данный торрент является блокированным, причина: Закрыто правообладателем

в форуме Документальные, Размер: 1.3 ГБ, Здоровье: 100%

Гость

0
174|62

180
203

17 май 2015, 13:55

Гость Перейти к последнему сообщению

В этой теме нет новых непрочитанных сообщений. Скачать торрент Проверен М. В. Хлебников | «Теория заговора». Опыт социокультурного исследования (2012) [DJVU, PDF]

в форуме Научно-популярная лит-ра, Размер: 28.11 МБ, Здоровье: 100%

Anonymous

0
10|3

52
1

28 июн 2014, 23:35

Anonymous Перейти к последнему сообщению



Сейчас этот форум просматривают: нет зарегистрированных пользователей и гости: 1


Вы не можете начинать темы
Вы не можете отвечать на сообщения
Вы не можете редактировать свои сообщения
Вы не можете удалять свои сообщения
Вы не можете добавлять вложения

Перейти:  

!ВНИМАНИЕ!
 Ресурс не предоставляет электронные версии произведений, а занимается лишь коллекционированием и каталогизацией ссылок, присылаемых и публикуемых на форуме нашими читателями. Если вы являетесь правообладателем какого-либо представленного материала и не желаете чтобы ссылка на него находилась в нашем каталоге, свяжитесь с нами и мы незамедлительно удалим её. Файлы для обмена на трекере предоставлены пользователями сайта, и администрация не несёт ответственности за их содержание. Просьба не заливать файлы, защищенные авторскими правами, а также файлы нелегального содержания!