На всех торрентах на трекере установлена скидка на скачивание в размере 100 процентов(а).
 Возможность скачивания торрента НЕ зависит от ограничений при низком ратио, низком аплоаде, требуемом ратио или требуемом аплоаде.


Начать новую тему Ответить на тему
Статистика раздачи
Размер: 8.58 ГБ | Добавлен: 21 май 2014, 16:42 | Скачали: 11
Сидеров: 6  [0 байт/сек]    Личеров: 0  [0 байт/сек]
Пред. тема | След. тема 

Автор
Сообщение

СообщениеДобавлено: 21 май 2014, 16:42 

Название: Хемингуэй и Геллхорн
Оригинальное название: Hemingway & Gellhorn
Год выхода: 2012
Жанр: драма, мелодрама, биография
Режиссер: Филип Кауфман

В ролях: Николь Кидман, Клайв Оуэн, Родриго Санторо, Роберт Дювалл, Конни Нильсен, Паркер Поузи, Тони Шэлуб, Дэвид Стрэтэйрн, Молли Паркер, Марк Пеллегрино

О фильме:
1936-й. Бар Флорида... Действие разворачивается от первой встречи Эрнеста Хемингуэя с его Мартой Геллхорн — в любимом местечке писателя. Он уже был именит тогда, а длинноногая красавица-корреспондентка вскоре отправлялась в пылающую Испанию. Поехал за ней, вместе они работали над документальным фильмом против диктатора Франко, вместе призывали своим фильмом людей: надо действовать, остановить фашизм!...

В Испании было положено начало пятилетнему браку двух неординарных личностей. Они были влюблены и неразлучны. Это благодаря Геллхорн писатель вдохновился на знаменитый свой роман — «По ком звонит колокол». Под свистом пуль супруги прекрасно ладили, но в тесноте домашних стен сразу начинали воевать и спорить друг с другом...



Выпущено: США
Продолжительность: 02:34:48
Озвучивание: Профессиональное (многоголосое) [Amedia]
Профессиональное (двухголосое) [Пиратская Студия]


Формат: MKV
Качество: BDRip 720p [HDWing]
Видео: 5845 kb/s, 1280х720
Аудио:
Russian [Amedia]: AC3, 192 kb/s (2 ch)
Russian [Пиратская Студия]: AC3, 384 kb/s (6 ch)
English: DTS, 1510 kb/s (6 ch)
Субтитры: English
Дополнительно: Сохранены оригинальные чаптеры как на Blu-Ray

Скачать: Сэмпл

Релиз группы:




Общее
Hemingway.and.Gellhorn.2012.Blu.Ray.720p.CINEMANIA.mkv
Формат : Matroska
Версия формата : Version 4 / Version 2
Размер файла : 8,58 Гбайт
Продолжительность : 2 ч. 34 м.
Общий поток : 7931 Кбит/сек
Название фильма : Release Group CINEMANIA
Дата кодирования : UTC 2014-05-21 07:04:17
Программа кодирования : mkvmerge v6.9.1 ('Blue Panther') 64bit built on Apr 18 2014 18:23:38
Библиотека кодирования : libebml v1.3.0 + libmatroska v1.4.1

Видео
Идентификатор : 1
Формат : AVC
Формат/Информация : Advanced Video Codec
Профиль формата : High@L4.1
Параметр CABAC формата : Да
Параметр ReFrames формата : 9 кадров
Идентификатор кодека : V_MPEG4/ISO/AVC
Продолжительность : 2 ч. 34 м.
Битрейт : 5845 Кбит/сек
Ширина : 1280 пикселей
Высота : 720 пикселей
Соотношение сторон : 16:9
Режим частоты кадров : Постоянный
Частота кадров : 23,976 кадра/сек
Цветовое пространство : YUV
Субдискретизация насыщенности : 4:2:0
Битовая глубина : 8 бит
Тип развёртки : Прогрессивная
Бит/(Пиксели*Кадры) : 0.265
Размер потока : 6,15 Гбайт (72%)
Заголовок : Release Group CINEMANIA
Библиотека кодирования : x264 core 130 r2273 b3065e6
Настройки программы : cabac=1 / ref=9 / deblock=1:-3:-3 / analyse=0x3:0x113 / me=umh / subme=10 / psy=1 / psy_rd=1.00:0.10 / mixed_ref=1 / me_range=32 / chroma_me=1 / trellis=2 / 8x8dct=1 / cqm=0 / deadzone=21,11 / fast_pskip=0 / chroma_qp_offset=-5 / threads=9 / lookahead_threads=1 / sliced_threads=0 / nr=0 / decimate=0 / interlaced=0 / bluray_compat=0 / constrained_intra=0 / bframes=6 / b_pyramid=2 / b_adapt=2 / b_bias=0 / direct=3 / weightb=1 / open_gop=0 / weightp=2 / keyint=250 / keyint_min=23 / scenecut=40 / intra_refresh=0 / rc_lookahead=40 / rc=2pass / mbtree=0 / bitrate=5845 / ratetol=1.0 / qcomp=0.60 / qpmin=0 / qpmax=69 / qpstep=4 / cplxblur=20.0 / qblur=0.5 / vbv_maxrate=40000 / vbv_bufsize=40000 / nal_hrd=none / ip_ratio=1.40 / pb_ratio=1.30 / aq=1:0.80
Язык : English
Default : Да
Forced : Нет

Аудио #1
Идентификатор : 2
Формат : AC-3
Формат/Информация : Audio Coding 3
Расширение режима : CM (complete main)
Параметр Endianness формата : Big
Идентификатор кодека : A_AC3
Продолжительность : 2 ч. 34 м.
Вид битрейта : Постоянный
Битрейт : 192 Кбит/сек
Каналы : 2 канала
Расположение каналов : Front: L R
Частота : 48,0 КГц
Битовая глубина : 16 бит
Метод сжатия : С потерями
Размер потока : 213 Мбайт (2%)
Заголовок : Amedia
Язык : Russian
Default : Да
Forced : Да

Аудио #2
Идентификатор : 3
Формат : AC-3
Формат/Информация : Audio Coding 3
Расширение режима : CM (complete main)
Параметр Endianness формата : Big
Идентификатор кодека : A_AC3
Продолжительность : 2 ч. 34 м.
Вид битрейта : Постоянный
Битрейт : 384 Кбит/сек
Каналы : 6 каналов
Расположение каналов : Front: L C R, Side: L R, LFE
Частота : 48,0 КГц
Битовая глубина : 16 бит
Метод сжатия : С потерями
Размер потока : 425 Мбайт (5%)
Заголовок : Пиратская Студия
Язык : Russian
Default : Нет
Forced : Нет

Аудио #3
Идентификатор : 4
Формат : DTS
Формат/Информация : Digital Theater Systems
Режим : 16
Параметр Endianness формата : Big
Идентификатор кодека : A_DTS
Продолжительность : 2 ч. 34 м.
Вид битрейта : Постоянный
Битрейт : 1509 Кбит/сек
Каналы : 6 каналов
Расположение каналов : Front: L C R, Side: L R, LFE
Частота : 48,0 КГц
Битовая глубина : 16 бит
Метод сжатия : С потерями
Размер потока : 1,63 Гбайт (19%)
Язык : English
Default : Нет
Forced : Нет

Текст
Идентификатор : 5
Формат : UTF-8
Идентификатор кодека : S_TEXT/UTF8
Идентификатор кодека/Информация : UTF-8 Plain Text
Язык : English
Default : Нет
Forced : Нет

Меню
00:00:00.000 : en:01. First Meeting
00:08:09.780 : en:02. Fascism on the Move
00:15:53.786 : en:03. War Correspondent
00:27:41.451 : en:04. A Just Cause
00:38:56.709 : en:05. Russian Roulette
00:48:38.373 : en:06. War Across the City
00:56:48.988 : en:07. Love Amidst War
01:10:31.310 : en:08. A Natural Voice
01:23:48.815 : en:09. Adultery Exposed
01:31:35.823 : en:10. Despair in Spain
01:41:07.603 : en:11. Arctic Separation
01:49:47.122 : en:12. Honeymoon
02:04:16.907 : en:13. Patriotism
02:11:19.746 : en:14. Talk of Invasion
02:16:54.581 : en:15. Too Late
02:25:49.866 : en:16. Durability of Love
02:30:46.037 : en:17. Credits
02:34:48.028 : en:
загрузка...
Правила, инструкции, FAQ!!!
Торрент  Добавлен [21 май 2014, 16:42] Скачать торрент
Скачать торрент
[ Размер 43.46 КБ / Просмотров 3 ]

Статус
Проверен 
 
Размер  8.58 ГБ
Приватный: Нет (DHT включён)
.torrent скачан  11
Как залить торрент? | Как скачать Torrent? | Как смотреть и слушать онлайн?  


     Отправить личное сообщение
   
Страница 1 из 1
Показать сообщения за:  Поле сортировки  
Начать новую тему Ответить на тему

   Похожие торренты   Автор   Ответы   Просмотры   Последнее сообщение 
В этой теме нет новых непрочитанных сообщений. Скачать торрент Проверен Хемингуэй и Геллхорн / Hemingway & Gellhorn (2012) HDRip | P

в форуме Драмы, Мелодрамы, Размер: 2.04 ГБ, Здоровье: 100%

Anonymous

0
22|0

35
99

21 май 2014, 16:37

Anonymous Перейти к последнему сообщению

В этой теме нет новых непрочитанных сообщений. Скачать торрент Проверен Дом Хемингуэй / Dom Hemingway (2013) BDRip 720p | P, L2, L1

в форуме 720p | 1080p, Размер: 4.41 ГБ, Здоровье: 100%

Anonymous

0
13|0

68
149

10 июн 2014, 15:01

Anonymous Перейти к последнему сообщению

В этой теме нет новых непрочитанных сообщений. Скачать торрент Проверен Дом Хемингуэй / Dom Hemingway (2013) BDRip 1080p | P, L2, L1

в форуме 720p | 1080p, Размер: 9.6 ГБ, Здоровье: 100%

Anonymous

0
28|0

118
3085

10 июн 2014, 15:04

Anonymous Перейти к последнему сообщению

В этой теме нет новых непрочитанных сообщений. Скачать торрент Проверен Дом Хемингуэй / Dom Hemingway (2013) HDRip | P

в форуме Драмы, Мелодрамы, Размер: 1.36 ГБ, Здоровье: 100%

Anonymous

0
55|1

79
433

10 июн 2014, 14:54

Anonymous Перейти к последнему сообщению

В этой теме нет новых непрочитанных сообщений. Скачать торрент Проверен Hemingway Ernest / Хемингуэй Эрнест - Избранное [1987, PDF/DjVu, RUS]

в форуме Зарубежная литература (XX и XXI век), Размер: 26.43 МБ, Здоровье: 0%

Anonymous

0
0|0

5
0

08 сен 2016, 19:05

Anonymous Перейти к последнему сообщению



Сейчас этот форум просматривают: нет зарегистрированных пользователей и гости: 1


Вы не можете начинать темы
Вы не можете отвечать на сообщения
Вы не можете редактировать свои сообщения
Вы не можете удалять свои сообщения
Вы не можете добавлять вложения

Перейти:  

!ВНИМАНИЕ!
 Ресурс не предоставляет электронные версии произведений, а занимается лишь коллекционированием и каталогизацией ссылок, присылаемых и публикуемых на форуме нашими читателями. Если вы являетесь правообладателем какого-либо представленного материала и не желаете чтобы ссылка на него находилась в нашем каталоге, свяжитесь с нами и мы незамедлительно удалим её. Файлы для обмена на трекере предоставлены пользователями сайта, и администрация не несёт ответственности за их содержание. Просьба не заливать файлы, защищенные авторскими правами, а также файлы нелегального содержания!
cron