На всех торрентах на трекере установлена скидка на скачивание в размере 100 процентов(а).
 Возможность скачивания торрента НЕ зависит от ограничений при низком ратио, низком аплоаде, требуемом ратио или требуемом аплоаде.


Начать новую тему Ответить на тему
Статистика раздачи
Размер: 2.46 ГБ | Добавлен: 21 май 2014, 16:33 | Скачали: 25
Сидеров: 3  [0 байт/сек]    Личеров: 0  [0 байт/сек]
Пред. тема | След. тема 

Автор
Сообщение

СообщениеДобавлено: 21 май 2014, 16:33 

Название: Биг-Сюр
Оригинальное название: Big Sur
Год выхода: 2013
Жанр: драма
Режиссер: Майкл Полиш

В ролях: Жан-Марк Барр, Кейт Босворт, Джош Лукас, Энтони Эдвардс, Бальтазар Гетти, Патрик Фишлер, Стана Катич, Генри Томас, Джон Робинсон, Рада Митчелл

О фильме:
Внезапно свалившаяся слава и разрушительный для его организма образ жизни весьма негативно сказываются на разуме Джека Керуака – авторе популярного новаторского романа. В поисках самого себя Джек отправляется из Нью-Йорка в Калифорнию, где и поселяется в лесу Биг-Сюр. Здесь он страдает от паранойи и белой горячки, но присущий ему оптимизм и сила духа помогут ему победить в схватке с демонами его психики.



Выпущено: США
Продолжительность: 01:21:15
Озвучивание: Любительское (одноголосое) [Василий Кошкин]


Формат: MKV
Качество: WEB-DL 720p [fiend]
Видео: 3674 kb/s, 1280x530
Аудио: Russian: AC3, 192 (2 ch) / English: AC3, 384 kb/s (6 ch)
Субтитры: Russian MrCatRabbit, English
Дополнительно: Сохранены оригинальные чаптеры как на Blu-Ray

Скачать: Сэмпл

Релиз группы:



Общее
Big.Sur.2013.WEB-DL.720p.CINEMANIA.mkv
Формат : Matroska
Версия формата : Version 4 / Version 2
Размер файла : 2,46 Гбайт
Продолжительность : 1 ч. 21 м.
Общий поток : 4336 Кбит/сек
Название фильма : Release Group CINEMANIA
Дата кодирования : UTC 2014-05-21 12:24:50
Программа кодирования : mkvmerge v6.9.1 ('Blue Panther') 64bit built on Apr 18 2014 18:23:38
Библиотека кодирования : libebml v1.3.0 + libmatroska v1.4.1

Видео
Идентификатор : 1
Формат : AVC
Формат/Информация : Advanced Video Codec
Профиль формата : Main@L3.1
Параметр CABAC формата : Нет
Параметр ReFrames формата : 2 кадра
Идентификатор кодека : V_MPEG4/ISO/AVC
Продолжительность : 1 ч. 21 м.
Битрейт : 3674 Кбит/сек
Ширина : 1280 пикселей
Высота : 530 пикселей
Соотношение сторон : 2,40:1
Режим частоты кадров : Постоянный
Частота кадров : 23,976 кадра/сек
Цветовое пространство : YUV
Субдискретизация насыщенности : 4:2:0
Битовая глубина : 8 бит
Тип развёртки : Прогрессивная
Бит/(Пиксели*Кадры) : 0.226
Размер потока : 2,09 Гбайт (85%)
Заголовок : Release Group CINEMANIA
Язык : English
Default : Да
Forced : Нет
Основные цвета : BT.709
Характеристики трансфера : BT.709
Коэффициенты матрицы : BT.709

Аудио #1
Идентификатор : 2
Формат : AC-3
Формат/Информация : Audio Coding 3
Расширение режима : CM (complete main)
Параметр Endianness формата : Big
Идентификатор кодека : A_AC3
Продолжительность : 1 ч. 21 м.
Вид битрейта : Постоянный
Битрейт : 192 Кбит/сек
Каналы : 2 канала
Расположение каналов : Front: L R
Частота : 48,0 КГц
Битовая глубина : 16 бит
Метод сжатия : С потерями
Размер потока : 112 Мбайт (4%)
Заголовок : В.Кошкин
Язык : Russian
Default : Да
Forced : Да

Аудио #2
Идентификатор : 3
Формат : AC-3
Формат/Информация : Audio Coding 3
Расширение режима : CM (complete main)
Параметр Endianness формата : Big
Идентификатор кодека : A_AC3
Продолжительность : 1 ч. 21 м.
Вид битрейта : Постоянный
Битрейт : 384 Кбит/сек
Каналы : 6 каналов
Расположение каналов : Front: L C R, Side: L R, LFE
Частота : 48,0 КГц
Битовая глубина : 16 бит
Метод сжатия : С потерями
Размер потока : 223 Мбайт (9%)
Язык : English
Default : Нет
Forced : Нет

Текст #1
Идентификатор : 4
Формат : UTF-8
Идентификатор кодека : S_TEXT/UTF8
Идентификатор кодека/Информация : UTF-8 Plain Text
Заголовок : MrCatRabbit
Язык : Russian
Default : Нет
Forced : Нет

Текст #2
Идентификатор : 5
Формат : UTF-8
Идентификатор кодека : S_TEXT/UTF8
Идентификатор кодека/Информация : UTF-8 Plain Text
Язык : English
Default : Нет
Forced : Нет

Меню
00:00:00.000 : en:1
00:04:56.000 : en:2
00:13:15.000 : en:3
00:19:57.000 : en:4
00:27:13.000 : en:5
00:32:09.000 : en:6
00:38:15.000 : en:7
00:44:16.000 : en:8
00:51:17.000 : en:9
00:56:48.000 : en:10
01:04:01.000 : en:11
01:12:12.000 : en:12
загрузка...
Правила, инструкции, FAQ!!!
Торрент  Добавлен [21 май 2014, 16:33] Скачать торрент
Скачать торрент
[ Размер 12.88 КБ / Просмотров 5 ]

Статус
Проверен 
 
Размер  2.46 ГБ
Приватный: Нет (DHT включён)
.torrent скачан  25
Как залить торрент? | Как скачать Torrent? | Как смотреть и слушать онлайн?  


     Отправить личное сообщение
   
Страница 1 из 1
Показать сообщения за:  Поле сортировки  
Начать новую тему Ответить на тему

   Похожие торренты   Автор   Ответы   Просмотры   Последнее сообщение 
В этой теме нет новых непрочитанных сообщений. Скачать торрент Проверен Killswitch Engage - Monsters Of Rock, Brasil, 19.10.2013 - HD 720p [2013, Melodic Metalcore, HDTV 720p]

в форуме Концерты (HD-Video), Размер: 2.8 ГБ, Здоровье: 100%

Anonymous

0
1|0

2
0

23 окт 2016, 10:27

Anonymous Перейти к последнему сообщению

В этой теме нет новых непрочитанных сообщений. Скачать торрент Проверен Goo Goo Dolls - Rebel Beat (Live @ The Tonight Show with Jay Leno 01.04.2013) (NBC 720p) [2013, Alternative, Rock, Post-Grunge, HDTVRip 720p]

в форуме Концерты (HD-Video), Размер: 227.34 МБ, Здоровье: 0%

Anonymous

0
0|0

0
0

23 окт 2016, 11:12

Anonymous Перейти к последнему сообщению

В этой теме нет новых непрочитанных сообщений. Скачать торрент Проверен John Rzeznik (Goo Goo Dolls) & Jeff Gutt - Iris (Live @ The X Factor USA Season 3 Finals 26.12.2013) (Fox 720p) [2013, Alternative, Rock, Post-Grunge, HDTV 720p]

в форуме Концерты (HD-Video), Размер: 303.31 МБ, Здоровье: 0%

Anonymous

0
0|0

2
0

23 окт 2016, 11:13

Anonymous Перейти к последнему сообщению

В этой теме нет новых непрочитанных сообщений. Скачать торрент Проверен Daughtry - Waiting For Superman & Battleships (Live @ Dick Clark's New Year's Rockin' Eve'14 with Ryan Seacrest 31.12.2013) (ABC 720p) [2013, Alternative Rock, Modern Rock, HDTV 720p]

в форуме Концерты (HD-Video), Размер: 690.66 МБ, Здоровье: 100%

Anonymous

0
2|1

52
2

26 апр 2015, 22:13

Anonymous Перейти к последнему сообщению

В этой теме нет новых непрочитанных сообщений. Скачать торрент Проверен Rammstein - Рок над Волгой 2013 (2013-06-08) [2013, Industrial, HDCamRip 720p]

в форуме Концерты (HD-Video), Размер: 4.31 ГБ, Здоровье: 100%

Anonymous

0
6|2

2
0

23 окт 2016, 14:26

Anonymous Перейти к последнему сообщению



Сейчас этот форум просматривают: нет зарегистрированных пользователей и гости: 3


Вы не можете начинать темы
Вы не можете отвечать на сообщения
Вы не можете редактировать свои сообщения
Вы не можете удалять свои сообщения
Вы не можете добавлять вложения

Перейти:  

!ВНИМАНИЕ!
 Ресурс не предоставляет электронные версии произведений, а занимается лишь коллекционированием и каталогизацией ссылок, присылаемых и публикуемых на форуме нашими читателями. Если вы являетесь правообладателем какого-либо представленного материала и не желаете чтобы ссылка на него находилась в нашем каталоге, свяжитесь с нами и мы незамедлительно удалим её. Файлы для обмена на трекере предоставлены пользователями сайта, и администрация не несёт ответственности за их содержание. Просьба не заливать файлы, защищенные авторскими правами, а также файлы нелегального содержания!