На всех торрентах на трекере установлена скидка на скачивание в размере 100 процентов(а).
 Возможность скачивания торрента НЕ зависит от ограничений при низком ратио, низком аплоаде, требуемом ратио или требуемом аплоаде.


Начать новую тему Ответить на тему
Статистика раздачи
Размер: 6.48 ГБ | Добавлен: 21 май 2014, 06:19 | Скачали: 67
Сидеров: 14  [0 байт/сек]    Личеров: 0  [0 байт/сек]
Пред. тема | След. тема 

Автор
Сообщение

СообщениеДобавлено: 21 май 2014, 06:19 

Название: Переполох в общаге
Оригинальное название: National Lampoon Presents Dorm Daze
Год выхода: 2003
Жанр: Мелодрама, комедия, криминал
Режиссер: Дэвид Хилленбрэнд, Скотт Хилленбрэнд

В ролях: Татьяна Али, Боти Блисс, Гейбл Карр, Патрик Кавано, Джеймс ДеБелло, Марайа Делфино, Тони Денмен, Даниель Фишел, Кортни Гейнс, Грегори Хинтон

О фильме:
Все смешалось в общежитии университета Билинглсей! До Рождества - три дня, студенты охвачены предпраздничной лихорадкой. Они безумствуют на вечеринках, предаются бурному веселью и падают жертвами стрел шаловливого Купидона.

Кипят страсти, бушуют гормоны, играет кровь! А между тем неминуемо надвигаются экзамены, строгие профессора не дадут спуску прогульщикам и лентяям. Но Макмартин Холл и думать забыл о книгах, он твердо решил, что его умник-братец должен непременно расстаться с невинностью до наступления Нового Года.

Для реализации коварного замысла он оплатил услуги профессионалки экстра-класса, знойной красотки Доминик. Она приникает в общежитие, но идеальный план неожиданно дает сбой: в это же время в университет по программе обмена студентами прибывает очаровательная француженка, почти не говорящая по-английски. Ее имя тоже Доминик…



Страна: США
Продолжительность: 01:36:27
Перевод: Дублированный + профессиональный двухголосый + авторский


Источник: BD-Remux
Качество: BDRip 1080p
Контейнер: MKV
Видео: MPEG-4 AVC, 1920x1000, 8600 kbps, 24 fps
Аудио №1: русский / AC3 / 2.0 / 48 kHz / 192 kbps / |Дубляж, R5|
Аудио №2: русский / AC3 / 2.0 / 48 kHz / 192 kbps / |С. Визгунов|
Аудио №3: украинский / AC3 / 2.0 / 48 kHz / 192 kbps / |Новый канал|
Аудио №4: английский / AC3 / 5.1 / 48 kHz / 448 kbps

General
Unique ID : 217290245786381427757166141471079501392 (0xA378943FC9B0EE19882ABACE22BB8E50)
Complete name : D:КИНОPerepoloh.v.Obshage.(2003).BDRip1080p.[-=DoMiNo=-].mkv
Format : Matroska
Format version : Version 4 / Version 2
File size : 6.48 GiB
Duration : 1h 36mn
Overall bit rate : 9 624 Kbps
Movie name : Perepoloh.v.Obshage.(2003).BDRip1080p.[-=DoMiNo=-]
Encoded date : UTC 2014-05-21 02:42:37
Writing application : mkvmerge v6.9.1 ('Blue Panther') 64bit built on Apr 18 2014 18:23:38
Writing library : libebml v1.3.0 + libmatroska v1.4.1

Video
ID : 1
Format : AVC
Format/Info : Advanced Video Codec
Format profile : High@L4.1
Format settings, CABAC : Yes
Format settings, ReFrames : 4 frames
Codec ID : V_MPEG4/ISO/AVC
Duration : 1h 36mn
Bit rate : 8 600 Kbps
Width : 1 920 pixels
Height : 1 000 pixels
Display aspect ratio : 1.920
Frame rate mode : Constant
Frame rate : 24.000 fps
Color space : YUV
Chroma subsampling : 4:2:0
Bit depth : 8 bits
Scan type : Progressive
Bits/(Pixel*Frame) : 0.187
Stream size : 5.67 GiB (87%)
Writing library : x264 core 130 r2273 b3065e6
Encoding settings : cabac=1 / ref=4 / deblock=1:-3:-3 / analyse=0x3:0x133 / me=umh / subme=11 / psy=1 / psy_rd=1.00:0.50 / mixed_ref=1 / me_range=32 / chroma_me=1 / trellis=2 / 8x8dct=1 / cqm=0 / deadzone=21,11 / fast_pskip=0 / chroma_qp_offset=-3 / threads=16 / lookahead_threads=4 / sliced_threads=0 / slices=4 / nr=0 / decimate=1 / interlaced=0 / bluray_compat=0 / constrained_intra=0 / bframes=6 / b_pyramid=2 / b_adapt=2 / b_bias=0 / direct=3 / weightb=1 / open_gop=0 / weightp=2 / keyint=240 / keyint_min=3 / scenecut=40 / intra_refresh=0 / rc_lookahead=150 / rc=2pass / mbtree=1 / bitrate=8600 / ratetol=1.0 / qcomp=0.70 / qpmin=10 / qpmax=51 / qpstep=4 / cplxblur=20.0 / qblur=0.5 / ip_ratio=1.40 / aq=2:2.00
Default : Yes
Forced : No

Audio #1
ID : 2
Format : AC-3
Format/Info : Audio Coding 3
Mode extension : CM (complete main)
Format settings, Endianness : Big
Codec ID : A_AC3
Duration : 1h 36mn
Bit rate mode : Constant
Bit rate : 192 Kbps
Channel(s) : 2 channels
Channel positions : Front: L R
Sampling rate : 48.0 KHz
Bit depth : 16 bits
Compression mode : Lossy
Stream size : 132 MiB (2%)
Title : Russian: 48 kHz, АС3, 2 ch, 192 kbps [дубляж, R5]
Language : Russian
Default : Yes
Forced : No

Audio #2
ID : 3
Format : AC-3
Format/Info : Audio Coding 3
Mode extension : CM (complete main)
Format settings, Endianness : Big
Codec ID : A_AC3
Duration : 1h 36mn
Bit rate mode : Constant
Bit rate : 192 Kbps
Channel(s) : 2 channels
Channel positions : Front: L R
Sampling rate : 48.0 KHz
Bit depth : 16 bits
Compression mode : Lossy
Stream size : 132 MiB (2%)
Title : Russian: 48 kHz, АС3, 2 ch, 192 kbps [одноголосый, Визгунов]
Language : Russian
Default : No
Forced : No

Audio #3
ID : 4
Format : AC-3
Format/Info : Audio Coding 3
Mode extension : CM (complete main)
Format settings, Endianness : Big
Codec ID : A_AC3
Duration : 1h 36mn
Bit rate mode : Constant
Bit rate : 192 Kbps
Channel(s) : 2 channels
Channel positions : Front: L R
Sampling rate : 48.0 KHz
Bit depth : 16 bits
Compression mode : Lossy
Stream size : 132 MiB (2%)
Title : Ukrainian: 48 kHz, АС3, 2 ch, 192 kbps [двухголосый, Новый канал]
Language : Ukrainian
Default : No
Forced : No

Audio #4
ID : 5
Format : AC-3
Format/Info : Audio Coding 3
Mode extension : CM (complete main)
Format settings, Endianness : Big
Codec ID : A_AC3
Duration : 1h 36mn
Bit rate mode : Constant
Bit rate : 448 Kbps
Channel(s) : 6 channels
Channel positions : Front: L C R, Side: L R, LFE
Sampling rate : 48.0 KHz
Bit depth : 16 bits
Compression mode : Lossy
Stream size : 309 MiB (5%)
Title : Original
Language : English
Default : No
Forced : No
загрузка...
Правила, инструкции, FAQ!!!
Торрент  Добавлен [21 май 2014, 06:19] Скачать торрент
Скачать торрент
[ Размер 16.83 КБ / Просмотров 10 ]

Статус
Проверен 
 
Размер  6.48 ГБ
Приватный: Нет (DHT включён)
.torrent скачан  67
Как залить торрент? | Как скачать Torrent? | Как смотреть и слушать онлайн?  


     Отправить личное сообщение
   
Страница 1 из 1
Показать сообщения за:  Поле сортировки  
Начать новую тему Ответить на тему

   Похожие торренты   Автор   Ответы   Просмотры   Последнее сообщение 
В этой теме нет новых непрочитанных сообщений. Скачать торрент Переполох в общаге / Dorm Daze (Дэвид Хилленбранд / David Hillenbrand, Скотт Хилленбранд / Scott Hillenbrand) [2003, США, молодёжная комедия, DVDRip-AVC] Dub

в форуме Комедии, Размер: 1.46 ГБ, Здоровье: 0%

Anonymous

0
0|0

31
0

29 апр 2014, 13:56

Anonymous Перейти к последнему сообщению

В этой теме нет новых непрочитанных сообщений. Скачать торрент Американский пирог 6: Переполох в общаге / American Pie Presents: Beta House (Эндрю Уоллер / Andrew Uoller) [2007 г., молодёжная комедия, DVDRip] DVO + Original

в форуме Комедии, Размер: 1.46 ГБ, Здоровье: 0%

Anonymous

0
0|0

42
0

06 фев 2014, 11:43

Anonymous Перейти к последнему сообщению

В этой теме нет новых непрочитанных сообщений. Скачать торрент Национальная безопасность / National Security (2003) BDRip

в форуме Боевики, Размер: 1.46 ГБ, Здоровье: 0%

Anonymous

0
0|0

58
0

06 апр 2014, 12:23

Anonymous Перейти к последнему сообщению

В этой теме нет новых непрочитанных сообщений. Скачать торрент Национальная безопасность / National Security (2003) BDRip 720p | D, P, A

в форуме 720p | 1080p, Размер: 4.37 ГБ, Здоровье: 100%

Anonymous

0
15|3

31
94

06 апр 2014, 12:20

Anonymous Перейти к последнему сообщению

В этой теме нет новых непрочитанных сообщений. Скачать торрент Проверен Devin Townsend Presents: Ziltoid Live at the Royal Albert Hall [2015, Experimental/Progressive Metal, BDRip 1080p]

в форуме Концерты (HD-Video), Размер: 18.15 ГБ, Здоровье: 100%

Anonymous

0
5|1

0
0

23 окт 2016, 15:26

Anonymous Перейти к последнему сообщению



Сейчас этот форум просматривают: нет зарегистрированных пользователей и гости: 5


Вы не можете начинать темы
Вы не можете отвечать на сообщения
Вы не можете редактировать свои сообщения
Вы не можете удалять свои сообщения
Вы не можете добавлять вложения

Перейти:  

!ВНИМАНИЕ!
 Ресурс не предоставляет электронные версии произведений, а занимается лишь коллекционированием и каталогизацией ссылок, присылаемых и публикуемых на форуме нашими читателями. Если вы являетесь правообладателем какого-либо представленного материала и не желаете чтобы ссылка на него находилась в нашем каталоге, свяжитесь с нами и мы незамедлительно удалим её. Файлы для обмена на трекере предоставлены пользователями сайта, и администрация не несёт ответственности за их содержание. Просьба не заливать файлы, защищенные авторскими правами, а также файлы нелегального содержания!