На всех торрентах на трекере установлена скидка на скачивание в размере 100 процентов(а).
 Возможность скачивания торрента НЕ зависит от ограничений при низком ратио, низком аплоаде, требуемом ратио или требуемом аплоаде.


Начать новую тему Ответить на тему
Статистика раздачи
Размер: 7.05 ГБ | Добавлен: 20 май 2014, 21:21 | Скачали: 45
Сидеров: 7  [0 байт/сек]    Личеров: 0  [0 байт/сек]
Пред. тема | След. тема 

Автор
Сообщение

СообщениеДобавлено: 20 май 2014, 21:21 

Название: Любовь, секс и Лос-Анджелес
Оригинальное название: Cavemen
Год выпуска: 2013
Жанр: мелодрама, комедия
Режиссёр: Хершел Фабер

В ролях: Скайлар Эстин, Камилла Белль, Чад Майкл Мюррэй, Дайо Окенайи, Алексис Нэп, Кенни Вормолд, Чести Бальестерос, Джейсон Патрик, Зулейка Силвер, Меган Стивенсонш

О фильме:
Дин ведет жизнь настоящего плейбоя, ночи напролёт участвуя в развратных вечеринках и весёлых пьянках. Но однажды такая жизнь ему наскучивает, и он решает, что пора искать свою настоящую любовь. Помощь в этом нелегком деле ему оказывают Тесс, его лучшая подруга, и 9-летний племянник. А вот все его приятели наоборот отговаривают Дина от серьезных отношений. Со временем парень понимает, что ищет любовь не там, где нужно, и вскоре ему приходится выбирать между соблазнительной красавицей и обычной девушкой, с которой он отлично ладит во всём... На сайте Веб-Барона фильм Любовь, секс и Лос-Анджелес смотреть онлайн можно бесплатно.



Выпущено: США
Продолжительность: 01:26:48
Озвучивание: Профессиональное (многоголосое)


Формат: MKV
Качество: BDRip 1080p [Japhson]
Видео: 9293 kb/s, 1920x800
Аудио: Russian: AC3, 192 kb/s (2 ch) / English: DTS, 1510 kb/s (6 ch)
Субтитры: English

Скачать: Сэмпл

Релиз группы:



Общее
Cavemen.2013.Blu.Ray.1080p.CINEMANIA.mkv
Формат : Matroska
Версия формата : Version 4 / Version 2
Размер файла : 7,05 Гбайт
Продолжительность : 1 ч. 26 м.
Общий поток : 11,6 Мбит/сек
Название фильма : Release Group CINEMANIA
Дата кодирования : UTC 2014-05-20 11:05:30
Программа кодирования : mkvmerge v6.9.1 ('Blue Panther') 64bit built on Apr 18 2014 18:23:38
Библиотека кодирования : libebml v1.3.0 + libmatroska v1.4.1

Видео
Идентификатор : 1
Формат : AVC
Формат/Информация : Advanced Video Codec
Профиль формата : High@L4.1
Параметр CABAC формата : Да
Параметр ReFrames формата : 5 кадров
Идентификатор кодека : V_MPEG4/ISO/AVC
Продолжительность : 1 ч. 26 м.
Битрейт : 9293 Кбит/сек
Ширина : 1920 пикселей
Высота : 800 пикселей
Соотношение сторон : 2,40:1
Режим частоты кадров : Постоянный
Частота кадров : 23,976 кадра/сек
Цветовое пространство : YUV
Субдискретизация насыщенности : 4:2:0
Битовая глубина : 8 бит
Тип развёртки : Прогрессивная
Бит/(Пиксели*Кадры) : 0.252
Размер потока : 5,49 Гбайт (78%)
Заголовок : Release Group CINEMANIA
Библиотека кодирования : x264 core 142 r2409 d6b4e63
Настройки программы : cabac=1 / ref=5 / deblock=1:-1:-1 / analyse=0x3:0x113 / me=umh / subme=7 / psy=1 / psy_rd=1.00:0.00 / mixed_ref=1 / me_range=16 / chroma_me=1 / trellis=1 / 8x8dct=1 / cqm=0 / deadzone=21,11 / fast_pskip=1 / chroma_qp_offset=-2 / threads=12 / lookahead_threads=2 / sliced_threads=0 / nr=0 / decimate=1 / interlaced=0 / bluray_compat=0 / constrained_intra=0 / bframes=3 / b_pyramid=2 / b_adapt=2 / b_bias=0 / direct=3 / weightb=1 / open_gop=0 / weightp=2 / keyint=250 / keyint_min=23 / scenecut=40 / intra_refresh=0 / rc_lookahead=40 / rc=2pass / mbtree=1 / bitrate=9293 / ratetol=1.0 / qcomp=0.60 / qpmin=0 / qpmax=69 / qpstep=4 / cplxblur=20.0 / qblur=0.5 / vbv_maxrate=50000 / vbv_bufsize=50000 / nal_hrd=none / filler=0 / ip_ratio=1.40 / aq=1:1.00
Язык : English
Default : Да
Forced : Нет

Аудио #1
Идентификатор : 2
Формат : AC-3
Формат/Информация : Audio Coding 3
Расширение режима : CM (complete main)
Параметр Endianness формата : Big
Идентификатор кодека : A_AC3
Продолжительность : 1 ч. 26 м.
Вид битрейта : Постоянный
Битрейт : 192 Кбит/сек
Каналы : 2 канала
Расположение каналов : Front: L R
Частота : 48,0 КГц
Битовая глубина : 16 бит
Метод сжатия : С потерями
Размер потока : 119 Мбайт (2%)
Заголовок : online movies
Язык : Russian
Default : Да
Forced : Да

Аудио #2
Идентификатор : 3
Формат : DTS
Формат/Информация : Digital Theater Systems
Режим : 16
Параметр Endianness формата : Big
Идентификатор кодека : A_DTS
Продолжительность : 1 ч. 26 м.
Вид битрейта : Постоянный
Битрейт : 1509 Кбит/сек
Каналы : 6 каналов
Расположение каналов : Front: L C R, Side: L R, LFE
Частота : 48,0 КГц
Битовая глубина : 16 бит
Метод сжатия : С потерями
Размер потока : 937 Мбайт (13%)
Язык : English
Default : Нет
Forced : Нет

Аудио #3
Идентификатор : 4
Формат : AC-3
Формат/Информация : Audio Coding 3
Расширение режима : CM (complete main)
Параметр Endianness формата : Big
Идентификатор кодека : A_AC3
Продолжительность : 1 ч. 26 м.
Вид битрейта : Постоянный
Битрейт : 640 Кбит/сек
Каналы : 6 каналов
Расположение каналов : Front: L C R, Side: L R, LFE
Частота : 48,0 КГц
Битовая глубина : 16 бит
Метод сжатия : С потерями
Размер потока : 397 Мбайт (6%)
Язык : English
Default : Нет
Forced : Нет

Текст
Идентификатор : 5
Формат : UTF-8
Идентификатор кодека : S_TEXT/UTF8
Идентификатор кодека/Информация : UTF-8 Plain Text
Язык : English
Default : Нет
Forced : Нет
загрузка...
Правила, инструкции, FAQ!!!
Торрент  Добавлен [20 май 2014, 21:21] Скачать торрент
Скачать торрент
[ Размер 35.81 КБ / Просмотров 13 ]

Статус
Проверен 
 
Размер  7.05 ГБ
Приватный: Нет (DHT включён)
.torrent скачан  45
Как залить торрент? | Как скачать Torrent? | Как смотреть и слушать онлайн?  


     Отправить личное сообщение
   
Страница 1 из 1
Показать сообщения за:  Поле сортировки  
Начать новую тему Ответить на тему

   Похожие торренты   Автор   Ответы   Просмотры   Последнее сообщение 
В этой теме нет новых непрочитанных сообщений. Скачать торрент Проверен Любовь, секс и Лос-Анджелес / Cavemen (2013) BDRip 720p | P

в форуме 720p | 1080p, Размер: 4.48 ГБ, Здоровье: 0%

Anonymous

0
0|0

28
0

20 май 2014, 21:19

Anonymous Перейти к последнему сообщению

В этой теме нет новых непрочитанных сообщений. Скачать торрент Проверен Любовь, секс и Лос-Анджелес / Cavemen (2013) HDRip | P

в форуме Драмы, Мелодрамы, Размер: 1.37 ГБ, Здоровье: 0%

Anonymous

0
0|0

33
0

20 май 2014, 21:14

Anonymous Перейти к последнему сообщению

В этой теме нет новых непрочитанных сообщений. Скачать торрент Любовь, секс и химия / Better Living Through Chemistry (2013) BDRip 1080p

в форуме 720p | 1080p, Размер: 8.33 ГБ, Здоровье: 100%

Anonymous

0
15|1

38
117

21 апр 2014, 17:58

Anonymous Перейти к последнему сообщению

В этой теме нет новых непрочитанных сообщений. Скачать торрент Любовь, секс и химия / Better Living Through Chemistry (2014) BDRip 720p | L1

в форуме 720p | 1080p, Размер: 4.38 ГБ, Здоровье: 0%

Anonymous

0
0|0

49
1

21 апр 2014, 17:36

Anonymous Перейти к последнему сообщению

В этой теме нет новых непрочитанных сообщений. Скачать торрент Проверен Секс на две ночи / Two Night Stand (2014) BDRip [1080p]

в форуме 720p | 1080p, Размер: 6.82 ГБ, Здоровье: 100%

Гость

0
192|9

59
0

26 янв 2015, 00:42

Гость Перейти к последнему сообщению



Сейчас этот форум просматривают: нет зарегистрированных пользователей и гости: 2


Вы не можете начинать темы
Вы не можете отвечать на сообщения
Вы не можете редактировать свои сообщения
Вы не можете удалять свои сообщения
Вы не можете добавлять вложения

Перейти:  

!ВНИМАНИЕ!
 Ресурс не предоставляет электронные версии произведений, а занимается лишь коллекционированием и каталогизацией ссылок, присылаемых и публикуемых на форуме нашими читателями. Если вы являетесь правообладателем какого-либо представленного материала и не желаете чтобы ссылка на него находилась в нашем каталоге, свяжитесь с нами и мы незамедлительно удалим её. Файлы для обмена на трекере предоставлены пользователями сайта, и администрация не несёт ответственности за их содержание. Просьба не заливать файлы, защищенные авторскими правами, а также файлы нелегального содержания!