На всех торрентах на трекере установлена скидка на скачивание в размере 100 процентов(а).
 Возможность скачивания торрента НЕ зависит от ограничений при низком ратио, низком аплоаде, требуемом ратио или требуемом аплоаде.


Начать новую тему Ответить на тему
Статистика раздачи
Размер: 11.54 ГБ | Добавлен: 20 май 2014, 17:31 | Скачали: 251
Сидеров: 22  [0 байт/сек]    Личеров: 1  [0 байт/сек]
Пред. тема | След. тема 

Автор
Сообщение

СообщениеДобавлено: 20 май 2014, 17:31 

Название: Терминал
Оригинальное название: The Terminal
Год выхода: 2004
Жанр: драма, комедия
Режиссер: Стивен Спилберг

В ролях: Том Хэнкс, Кэтрин Зета-Джонс, Стэнли Туччи, Чи МакБрайд, Диего Луна, Бэрри Шебака Хенли, Кумар Паллана, Зои Салдана, Эдди Джонс, Джуд Чикколелла, Кори Рейнольдс, Гильермо Диас, Рини Белл, Стивен Мендел, Валерий Николаев, Майкл Нури, Ана Мария Квинтана, Боб Моррисей, Саша Спилберг, Сьюзэн Слоум, Мик Скриба, Джим Ишида, Карлис Бурк, Стефон Фуллер, Дэн Финнерти

О фильме:
Фильм рассказывает историю Виктора Наворски, отправившегося в Нью-Йорк из Восточной Европы. Пока Виктор летел в самолете, на его родине произошел государственный переворот. Оказавшись в международном аэропорту имени Джона Кеннеди с паспортом ниоткуда, он не имеет права въехать в Соединенные Штаты и должен коротать свои дни и ночи на скамейках у выхода 67, пока война в его родной стране не закончится.
Тянутся недели и месяцы, и Виктор обнаруживает, что небольшой мирок терминала может быть наполнен абсурдом, щедростью, амбициями, развлечениями, желанием сохранить свой статус, интуитивной прозорливостью и даже любовью к очаровательной стюардессе Амелии. Виктору удается завоевать симпатии всех, кроме одного человека — чиновника аэропорта Фрэнка Диксона, который считает его бюрократической ошибкой, проблемой, которую он не может контролировать, но от которой жаждет избавиться.



Выпущено: США
Продолжительность: 02:08:45
Перевод: Дублированный + Профессиональный (многоголосый, закадровый)[TYCOON] + Оригинал


Кодек: x264
Качество: BDRip 1080p
Видео: 1920x1036, 11558 Kbps, 23.976 fps
Аудио #1: AC-3, 6 ch, 384 kbps (Rus)|Дубляж - R5|
Аудио #2: AC-3, 6 ch, 448 kbps (Rus)|Многоголосый закадровый, TYCOON|
Аудио #3: AC-3, 6 ch, 448 kbps (Eng)
Субтитры: русские, английские

Общее
Уникальный идентификатор : 240171727073820085277322831910193862016 (0xB4AF6460727914409F90DE7017981580)
Полное имя : Терминал.2004.BDRip.1080p.Rus.Eng.mkv
Формат : Matroska
Версия формата : Version 2
Размер файла : 11,5 Гбайт
Продолжительность : 2 ч. 8 м.
Общий поток : 12,8 Мбит/сек
Название фильма : Терминал.2004
Дата кодирования : UTC 2014-05-04 15:58:54
Программа кодирования : mkvmerge v5.8.0 ('No Sleep / Pillow') built on Sep 2 2012 15:37:04
Библиотека кодирования : libebml v1.2.3 + libmatroska v1.3.0
Обложка : Yes

Видео
Идентификатор : 1
Формат : AVC
Формат/Информация : Advanced Video Codec
Профиль формата : High@L4.1
Параметр CABAC формата : Да
Параметр ReFrames формата : 4 кадра
Идентификатор кодека : V_MPEG4/ISO/AVC
Продолжительность : 2 ч. 8 м.
Битрейт : 11,6 Мбит/сек
Ширина : 1920 пикселей
Высота : 1036 пикселей
Соотношение сторон : 1,85:1
Режим частоты кадров : Постоянный
Частота кадров : 23,976 кадра/сек
Цветовое пространство : YUV
Субдискретизация насыщенности : 4:2:0
Битовая глубина : 8 бит
Тип развёртки : Прогрессивная
Бит/(Пиксели*Кадры) : 0.242
Размер потока : 10,2 Гбайт (88%)
Заголовок : Rip by Boriy
Библиотека кодирования : x264 core 142 r2431 ac76440
Настройки программы : cabac=1 / ref=4 / deblock=1:-3:-3 / analyse=0x3:0x113 / me=umh / subme=11 / psy=1 / psy_rd=1.00:0.00 / mixed_ref=1 / me_range=32 / chroma_me=1 / trellis=2 / 8x8dct=1 / cqm=0 / deadzone=21,11 / fast_pskip=0 / chroma_qp_offset=-2 / threads=12 / lookahead_threads=1 / sliced_threads=0 / nr=0 / decimate=0 / interlaced=0 / bluray_compat=0 / constrained_intra=0 / bframes=6 / b_pyramid=2 / b_adapt=2 / b_bias=0 / direct=3 / weightb=1 / open_gop=0 / weightp=2 / keyint=240 / keyint_min=23 / scenecut=40 / intra_refresh=0 / rc=2pass / mbtree=0 / bitrate=11558 / ratetol=1.0 / qcomp=0.60 / qpmin=0 / qpmax=69 / qpstep=4 / cplxblur=20.0 / qblur=0.5 / ip_ratio=1.40 / pb_ratio=1.30 / aq=1:0.80
Язык : English
Default : Да
Forced : Нет

Аудио #1
Идентификатор : 2
Формат : AC-3
Формат/Информация : Audio Coding 3
Расширение режима : CM (complete main)
Параметр Endianness формата : Big
Идентификатор кодека : A_AC3
Продолжительность : 2 ч. 8 м.
Вид битрейта : Постоянный
Битрейт : 384 Кбит/сек
Каналы : 6 каналов
Расположение каналов : Front: L C R, Side: L R, LFE
Частота : 48,0 КГц
Битовая глубина : 16 бит
Метод сжатия : С потерями
Размер потока : 354 Мбайт (3%)
Заголовок : Дубляж - R5
Язык : Russian
Default : Да
Forced : Нет

Аудио #2
Идентификатор : 3
Формат : AC-3
Формат/Информация : Audio Coding 3
Расширение режима : CM (complete main)
Параметр Endianness формата : Big
Идентификатор кодека : A_AC3
Продолжительность : 2 ч. 8 м.
Вид битрейта : Постоянный
Битрейт : 448 Кбит/сек
Каналы : 6 каналов
Расположение каналов : Front: L C R, Side: L R, LFE
Частота : 48,0 КГц
Битовая глубина : 16 бит
Метод сжатия : С потерями
Размер потока : 413 Мбайт (3%)
Заголовок : Многоголосый закадровый, TYCOON
Язык : Russian
Default : Нет
Forced : Нет

Аудио #3
Идентификатор : 4
Формат : AC-3
Формат/Информация : Audio Coding 3
Расширение режима : CM (complete main)
Параметр Endianness формата : Big
Идентификатор кодека : A_AC3
Продолжительность : 2 ч. 8 м.
Вид битрейта : Постоянный
Битрейт : 448 Кбит/сек
Каналы : 6 каналов
Расположение каналов : Front: L C R, Side: L R, LFE
Частота : 48,0 КГц
Битовая глубина : 16 бит
Метод сжатия : С потерями
Размер потока : 413 Мбайт (3%)
Заголовок : Оригинал
Язык : English
Default : Нет
Forced : Нет

Текст #1
Идентификатор : 5
Формат : UTF-8
Идентификатор кодека : S_TEXT/UTF8
Идентификатор кодека/Информация : UTF-8 Plain Text
Язык : Russian
Default : Нет
Forced : Нет

Текст #2
Идентификатор : 6
Формат : UTF-8
Идентификатор кодека : S_TEXT/UTF8
Идентификатор кодека/Информация : UTF-8 Plain Text
Язык : English
Default : Нет
Forced : Нет

Меню
00:00:00.000 : :1. Main Title
00:03:15.068 : :2. Crack in the System
00:08:59.288 : :3. America Closed
00:14:02.049 : :4. Do You Have an Appointment?
00:15:27.259 : :5. Gate 67
00:18:34.445 : :6. Acting Field Commissioner
00:20:25.641 : :7. Unacceptable
00:23:04.257 : :8. Unhooking the Fish
00:27:40.324 : :9. Sensible Heels
00:29:41.863 : :10. The Carts
00:32:28.571 : :11. 50/50
00:35:06.187 : :12. You Feed Me, I'll Feed You
00:41:22.146 : :13. Crowded
00:47:21.295 : :14. Observations
00:52:10.168 : :15. The Position Has Been Filled
00:57:34.075 : :16. After Hours
01:00:36.341 : :17. Rewriting History
01:05:59.997 : :18. The Inspection
01:16:04.560 : :19. If I Stay, You Stay
01:18:18.652 : :20. The Dinner Appointment
01:29:05.673 : :21. Tokens of Love
01:32:53.859 : :22. Why Viktor Navorski?
01:35:16.001 : :23. Keeping Promises
01:42:00.113 : :24. The War Is Over
01:48:59.491 : :25. Family
01:51:01.071 : :26. Viktor's Leaving!
01:57:51.939 : :27. 161 Lexington
02:01:33.703 : :28. End Credits
загрузка...
Правила, инструкции, FAQ!!!
Торрент  Добавлен [20 май 2014, 17:31] Скачать торрент
Скачать торрент
[ Размер 29.49 КБ / Просмотров 13 ]

Статус
Проверен 
 
Размер  11.54 ГБ
Приватный: Нет (DHT включён)
.torrent скачан  251
Как залить торрент? | Как скачать Torrent? | Как смотреть и слушать онлайн?  


     Отправить личное сообщение
   
Страница 1 из 1
Показать сообщения за:  Поле сортировки  
Начать новую тему Ответить на тему

   Похожие торренты   Автор   Ответы   Просмотры   Последнее сообщение 
В этой теме нет новых непрочитанных сообщений. Скачать торрент Проверен Терминал / The Terminal (2004) BDRip [576p] iPad

в форуме Фильмы для iPod, iPhone, iPad, Размер: 3.37 ГБ, Здоровье: 100%

Гость

0
7|1

47
0

12 дек 2014, 22:56

Гость Перейти к последнему сообщению

В этой теме нет новых непрочитанных сообщений. Скачать торрент Терминал / The Terminal (2004) HDTVRip 720p | D, P, P2, A

в форуме 720p | 1080p, Размер: 9.81 ГБ, Здоровье: 0%

Anonymous

0
0|0

33
0

15 мар 2014, 09:10

Anonymous Перейти к последнему сообщению

В этой теме нет новых непрочитанных сообщений. Скачать торрент Терминал / Terminal, the (Стивен Спилберг) [2004 г., Комедия, DVDRip]

в форуме Комедии, Размер: 690.33 МБ, Здоровье: 0%

Anonymous

0
0|0

35
0

10 фев 2014, 13:05

Anonymous Перейти к последнему сообщению

В этой теме нет новых непрочитанных сообщений. Скачать торрент Терминал / The Terminal (Стивен Спилберг / Steven Spielberg) [2004, США, мелодрама, драма, WEB-DLRip] DUB

в форуме Комедии, Размер: 2.19 ГБ, Здоровье: 0%

Anonymous

0
0|0

31
0

26 апр 2014, 20:56

Anonymous Перейти к последнему сообщению

В этой теме нет новых непрочитанных сообщений. Скачать торрент Скорость падения / Terminal Velocity (1994) BDRip-AVC | P, P2, A

в форуме 720p | 1080p, Размер: 3.2 ГБ, Здоровье: 0%

Anonymous

0
0|0

28
0

09 янв 2014, 19:57

Anonymous Перейти к последнему сообщению



Сейчас этот форум просматривают: нет зарегистрированных пользователей и гости: 1


Вы не можете начинать темы
Вы не можете отвечать на сообщения
Вы не можете редактировать свои сообщения
Вы не можете удалять свои сообщения
Вы не можете добавлять вложения

Перейти:  

!ВНИМАНИЕ!
 Ресурс не предоставляет электронные версии произведений, а занимается лишь коллекционированием и каталогизацией ссылок, присылаемых и публикуемых на форуме нашими читателями. Если вы являетесь правообладателем какого-либо представленного материала и не желаете чтобы ссылка на него находилась в нашем каталоге, свяжитесь с нами и мы незамедлительно удалим её. Файлы для обмена на трекере предоставлены пользователями сайта, и администрация не несёт ответственности за их содержание. Просьба не заливать файлы, защищенные авторскими правами, а также файлы нелегального содержания!