На всех торрентах на трекере установлена скидка на скачивание в размере 100 процентов(а).
 Возможность скачивания торрента НЕ зависит от ограничений при низком ратио, низком аплоаде, требуемом ратио или требуемом аплоаде.


Начать новую тему Ответить на тему
Статистика раздачи
Размер: 4.48 ГБ | Добавлен: 20 май 2014, 09:30 | Скачали: 0
Сидеров: 0  [0 байт/сек]    Личеров: 0  [0 байт/сек]
Пред. тема | След. тема 

Автор
Сообщение

СообщениеДобавлено: 20 май 2014, 09:30 

Название: Снова 16
Оригинальное название: 16 ans ou presque
Год выхода: 2013
Жанр: комедия
Режиссер: Тристан Сегуэла

В ролях: Лоран Лафитт, Виктор Джордж, Кристоф Малавуа, Джудит Эль Зейн, Джонатан Коэн, Франсуа Роллин, Анн Кановас, Пабло Поли, Александр Принц

О фильме:
Успешный юрист Арно Мюстье великолепный оратор, способный благодаря своему красноречию выиграть в суде практически любое дело. Но однажды его карьера начинает рушиться, когда Арно, начавший замечать за собой странное поведение, обращается к психологу за помощью и получает диагноз – синдром подростка. Теперь ему, взрослому состоявшемуся мужчине, предстоит вновь пережить подростковый кризис, через который как раз сейчас проходит его младший брат.



Выпущено: Франция
Продолжительность: 01:27:12
Озвучивание: Дублированное [Чистый Звук]


Формат: MKV
Качество: BDRip 720p [AKATSUKi]
Видео: 5662 kb/s, 1280x536
Аудио: Russian: AC3, 192 kb/s (2 ch) / French: DTS, 1510 kb/s (6 ch)
Дополнительно: Сохранены оригинальные чаптеры как на Blu-ray

Скачать: Сэмпл

Релиз группы:



Общее
16.Ans.Ou.Presque.2013.Blu.Ray.720p.CINEMANIA.mkv
Формат : Matroska
Версия формата : Version 4 / Version 2
Размер файла : 4,48 Гбайт
Продолжительность : 1 ч. 27 м.
Общий поток : 7363 Кбит/сек
Название фильма : Release Group CINEMANIA
Дата кодирования : UTC 2014-05-07 21:07:44
Программа кодирования : mkvmerge v6.9.1 ('Blue Panther') 64bit built on Apr 18 2014 18:23:38
Библиотека кодирования : libebml v1.3.0 + libmatroska v1.4.1

Видео
Идентификатор : 1
Формат : AVC
Формат/Информация : Advanced Video Codec
Профиль формата : High@L4.1
Параметр CABAC формата : Да
Параметр ReFrames формата : 5 кадров
Идентификатор кодека : V_MPEG4/ISO/AVC
Продолжительность : 1 ч. 27 м.
Битрейт : 5662 Кбит/сек
Ширина : 1280 пикселей
Высота : 536 пикселей
Соотношение сторон : 2,40:1
Режим частоты кадров : Постоянный
Частота кадров : 24,000 кадра/сек
Цветовое пространство : YUV
Субдискретизация насыщенности : 4:2:0
Битовая глубина : 8 бит
Тип развёртки : Прогрессивная
Бит/(Пиксели*Кадры) : 0.344
Размер потока : 3,36 Гбайт (75%)
Заголовок : Release Group CINEMANIA
Библиотека кодирования : x264 core 138 r2358 9e941d1
Настройки программы : cabac=1 / ref=5 / deblock=1:0:0 / analyse=0x3:0x113 / me=umh / subme=8 / psy=1 / psy_rd=1.00:0.00 / mixed_ref=1 / me_range=16 / chroma_me=1 / trellis=1 / 8x8dct=1 / cqm=0 / deadzone=21,11 / fast_pskip=0 / chroma_qp_offset=-2 / threads=18 / lookahead_threads=3 / sliced_threads=0 / nr=0 / decimate=1 / interlaced=0 / bluray_compat=0 / constrained_intra=0 / bframes=3 / b_pyramid=2 / b_adapt=2 / b_bias=0 / direct=3 / weightb=1 / open_gop=0 / weightp=2 / keyint=250 / keyint_min=23 / scenecut=40 / intra_refresh=0 / rc_lookahead=50 / rc=2pass / mbtree=1 / bitrate=5662 / ratetol=1.0 / qcomp=0.60 / qpmin=0 / qpmax=69 / qpstep=4 / cplxblur=20.0 / qblur=0.5 / ip_ratio=1.40 / aq=1:1.00
Default : Да
Forced : Нет

Аудио #1
Идентификатор : 2
Формат : AC-3
Формат/Информация : Audio Coding 3
Расширение режима : CM (complete main)
Параметр Endianness формата : Big
Идентификатор кодека : A_AC3
Продолжительность : 1 ч. 27 м.
Вид битрейта : Постоянный
Битрейт : 192 Кбит/сек
Каналы : 2 канала
Расположение каналов : Front: L R
Частота : 48,0 КГц
Битовая глубина : 16 бит
Метод сжатия : С потерями
Размер потока : 120 Мбайт (3%)
Заголовок : Дубляж (Чистый Звук)
Язык : Russian
Default : Да
Forced : Да

Аудио #2
Идентификатор : 3
Формат : DTS
Формат/Информация : Digital Theater Systems
Режим : 16
Параметр Endianness формата : Big
Идентификатор кодека : A_DTS
Продолжительность : 1 ч. 27 м.
Вид битрейта : Постоянный
Битрейт : 1509 Кбит/сек
Каналы : 6 каналов
Расположение каналов : Front: L C R, Side: L R, LFE
Частота : 48,0 КГц
Битовая глубина : 24 бит
Метод сжатия : С потерями
Размер потока : 941 Мбайт (20%)
Язык : French
Default : Нет
Forced : Нет

Меню
00:00:00.000 : fr:
00:08:10.916 : fr:
00:15:15.458 : fr:
00:22:23.416 : fr:
00:29:25.250 : fr:
00:36:54.041 : fr:
00:44:58.708 : fr:
00:50:40.500 : fr:
00:59:41.666 : fr:
01:05:33.000 : fr:
01:08:41.458 : fr:
01:16:45.000 : fr:
01:27:09.750 : fr:
загрузка...
Правила, инструкции, FAQ!!!
Торрент  Добавлен [20 май 2014, 09:30] Скачать торрент
Скачать торрент
[ Размер 23.01 КБ / Просмотров 4 ]

Статус
Проверен 
 
Размер  4.48 ГБ
Приватный: Нет (DHT включён)
.torrent скачан  0
Как залить торрент? | Как скачать Torrent? | Как смотреть и слушать онлайн?  


     Отправить личное сообщение
   
Страница 1 из 1
Показать сообщения за:  Поле сортировки  
Начать новую тему Ответить на тему

   Похожие торренты   Автор   Ответы   Просмотры   Последнее сообщение 
В этой теме нет новых непрочитанных сообщений. Скачать торрент Проверен Снова 16 / 16 ans ou presque (2013) BDRip 720p | D | Лицензия

в форуме 720p | 1080p, Размер: 4.6 ГБ, Здоровье: 100%

Anonymous

0
38|1

22
598

17 июн 2014, 01:17

Anonymous Перейти к последнему сообщению

В этой теме нет новых непрочитанных сообщений. Скачать торрент Олдбой / Oldboy (2013) BDRip 720p | Чистый звук

в форуме 720p | 1080p, Размер: 6.23 ГБ, Здоровье: 0%

Anonymous

0
0|0

26
0

12 фев 2014, 14:47

Anonymous Перейти к последнему сообщению

В этой теме нет новых непрочитанных сообщений. 47 ронинов / 47 Ronin (2013) BDRip 720p | Чистый звук

в форуме Новинки кино, Размер: 5.67 ГБ, Здоровье: 100%

Anonymous

0
337|1

131
4202

20 мар 2014, 20:12

Anonymous Перейти к последнему сообщению

В этой теме нет новых непрочитанных сообщений. Скачать торрент Starперцы / Last Vegas (2013) BDRip 720p | Чистый звук

в форуме 720p | 1080p, Размер: 6.39 ГБ, Здоровье: 0%

Anonymous

0
0|0

32
0

17 фев 2014, 22:09

Anonymous Перейти к последнему сообщению

В этой теме нет новых непрочитанных сообщений. Скачать торрент Гонка / Rush (2013) BDRip 720p | Чистый звук

в форуме 720p | 1080p, Размер: 5.12 ГБ, Здоровье: 0%

Anonymous

0
0|0

22
0

10 янв 2014, 15:41

Anonymous Перейти к последнему сообщению



Сейчас этот форум просматривают: нет зарегистрированных пользователей и гости: 1


Вы не можете начинать темы
Вы не можете отвечать на сообщения
Вы не можете редактировать свои сообщения
Вы не можете удалять свои сообщения
Вы не можете добавлять вложения

Перейти:  

!ВНИМАНИЕ!
 Ресурс не предоставляет электронные версии произведений, а занимается лишь коллекционированием и каталогизацией ссылок, присылаемых и публикуемых на форуме нашими читателями. Если вы являетесь правообладателем какого-либо представленного материала и не желаете чтобы ссылка на него находилась в нашем каталоге, свяжитесь с нами и мы незамедлительно удалим её. Файлы для обмена на трекере предоставлены пользователями сайта, и администрация не несёт ответственности за их содержание. Просьба не заливать файлы, защищенные авторскими правами, а также файлы нелегального содержания!