На всех торрентах на трекере установлена скидка на скачивание в размере 100 процентов(а).
 Возможность скачивания торрента НЕ зависит от ограничений при низком ратио, низком аплоаде, требуемом ратио или требуемом аплоаде.


Начать новую тему Ответить на тему
Статистика раздачи
Размер: 7.96 ГБ | Добавлен: 19 май 2014, 22:18 | Скачали: 0
Сидеров: 73  [0 байт/сек]    Личеров: 4  [0 байт/сек]
Пред. тема | След. тема 

Автор
Сообщение

СообщениеДобавлено: 19 май 2014, 22:18 

Конгресс / The Congress (2013) BDRip [1080p]

Год выпуска: 2013
Производство: Израиль, Германия, Польша, Люксембург, Франция, Бельгия
Жанр: Драма, Фантастика
Перевод: Профессиональный (многоголосый, закадровый) - online movies
Субтитры: Вшитые отключаемые
Язык субтитров: Русские, английские, французские

Дата мировой премьеры: 16 мая 2013 года
Дата российской премьеры: 13 марта 2014 года

Режиссер: Ари Фольман
Продюсер: Рейнхард Брюндиг, Себастьен Деллуа, Петр Дзецоль
Актеры: Робин Райт, Харви Кейтель, Джон Хэмм, Пол Джаматти, Коди Смит-МакФи, Дэнни Хьюстон, Сами Гэйл, Майкл Сталь-Дэвид, Майкл Лэндис, Сара Шахи

Описание фильма:
Фильм снят по мотивам романа «Футурологический Конгресс» Станислава Лема. Стареющая безработная актриса соглашается на последнюю работу, не представляя себе последствий, которые повлечет за собой это решение…



Продолжительность: 02:02:54
Качество видео: BDRip [1080p] [Profile LQ]

Видеокодек: MPEG-4 AVC/H.264
Битрейт видео: ~8441 Кбит/сек
Размер кадра: 1920х1040
Аудио 1: AC3, 2 канала, 192 Кбит/сек | Rus
Аудио 2: AC3, 6 каналов, 640 Кбит/сек | Eng
Сэмпл: Скачать

Релиз группа:
Общее
Уникальный идентификатор : 238891426060833187110268982105234856693 (0xB3B8D0A9CA4A5099AD3C9283FE4DDAF5)
Полное имя : The congress. (2013) BDRip 1080p.mkv
Формат : Matroska
Версия формата : Version 2
Размер файла : 7,96 Гбайт
Продолжительность : 2 ч. 2 м.
Общий поток : 9272 Кбит/сек
Название фильма : The Congress. 2013
Дата кодирования : UTC 2014-05-16 11:59:54
Программа кодирования : mkvmerge v5.8.0 ('No Sleep / Pillow') built on Sep 2 2012 15:37:04
Библиотека кодирования : libebml v1.2.3 + libmatroska v1.3.0

Видео
Идентификатор : 1
Формат : AVC
Формат/Информация : Advanced Video Codec
Профиль формата :
Параметр CABAC формата : Да
Параметр ReFrames формата : 4 кадра
Идентификатор кодека : V_MPEG4/ISO/AVC
Продолжительность : 2 ч. 2 м.
Битрейт : 8441 Кбит/сек
Ширина : 1920 пикселей
Высота : 1040 пикселей
Соотношение сторон : 1,85:1
Режим частоты кадров : Постоянный
Частота кадров : 23,976 кадра/сек
Цветовое пространство : YUV
Субдискретизация насыщенности : 4:2:0
Битовая глубина : 8 бит
Тип развёртки : Прогрессивная
Бит/(Пиксели*Кадры) : 0.176
Размер потока : 7,09 Гбайт (89%)
Заголовок : DEAL
Библиотека кодирования : x264 core 142 r2431 ac76440
Настройки программы : cabac=1 / ref=4 / deblock=1:0:0 / analyse=0x3:0x133 / me=umh / subme=7 / psy=1 / psy_rd=1.00:0.00 / mixed_ref=1 / me_range=16 / chroma_me=1 / trellis=1 / 8x8dct=1 / cqm=0 / deadzone=21,11 / fast_pskip=0 / chroma_qp_offset=-2 / threads=16 / lookahead_threads=2 / sliced_threads=0 / nr=0 / decimate=1 / interlaced=0 / bluray_compat=0 / constrained_intra=0 / bframes=3 / b_pyramid=2 / b_adapt=1 / b_bias=0 / direct=1 / weightb=1 / open_gop=0 / weightp=2 / keyint=240 / keyint_min=23 / scenecut=40 / intra_refresh=0 / rc_lookahead=40 / rc=2pass / mbtree=1 / bitrate=8441 / ratetol=1.0 / qcomp=0.60 / qpmin=0 / qpmax=69 / qpstep=4 / cplxblur=20.0 / qblur=0.5 / ip_ratio=1.40 / aq=1:1.00
Язык : English
Default : Да
Forced : Нет

Аудио #1
Идентификатор : 2
Формат : AC-3
Формат/Информация : Audio Coding 3
Расширение режима : CM (complete main)
Параметр Endianness формата : Big
Идентификатор кодека : A_AC3
Продолжительность : 2 ч. 2 м.
Вид битрейта : Постоянный
Битрейт : 192 Кбит/сек
Каналы : 2 канала
Расположение каналов : Front: L R
Частота : 48,0 КГц
Битовая глубина : 16 бит
Метод сжатия : С потерями
Размер потока : 169 Мбайт (2%)
Заголовок : Online movies
Язык : Russian
Default : Да
Forced : Нет

Аудио #2
Идентификатор : 3
Формат : AC-3
Формат/Информация : Audio Coding 3
Расширение режима : CM (complete main)
Параметр Endianness формата : Big
Идентификатор кодека : A_AC3
Продолжительность : 2 ч. 2 м.
Вид битрейта : Постоянный
Битрейт : 640 Кбит/сек
Каналы : 6 каналов
Расположение каналов : Front: L C R, Side: L R, LFE
Частота : 48,0 КГц
Битовая глубина : 16 бит
Метод сжатия : С потерями
Размер потока : 563 Мбайт (7%)
Заголовок : Eng
Язык : English
Default : Нет
Forced : Нет

Текст #1
Идентификатор : 4
Формат : UTF-8
Идентификатор кодека : S_TEXT/UTF8
Идентификатор кодека/Информация : UTF-8 Plain Text
Заголовок : Don_Leprikon
Язык : Russian
Default : Нет
Forced : Нет

Текст #2
Идентификатор : 5
Формат : UTF-8
Идентификатор кодека : S_TEXT/UTF8
Идентификатор кодека/Информация : UTF-8 Plain Text
Заголовок : Eng
Язык : English
Default : Нет
Forced : Нет

Текст #3
Идентификатор : 6
Формат : UTF-8
Идентификатор кодека : S_TEXT/UTF8
Идентификатор кодека/Информация : UTF-8 Plain Text
Заголовок : Fre
Язык : French
Default : Нет
Forced : Нет
Скриншоты:

загрузка...
Правила, инструкции, FAQ!!!
Торрент  Добавлен [19 май 2014, 22:18] Скачать торрент
Скачать торрент
[ Размер 20.69 КБ / Просмотров 7 ]

Статус
Проверен 
 
Размер  7.96 ГБ
Приватный: Нет (DHT включён)
.torrent скачан  0
Как залить торрент? | Как скачать Torrent? | Как смотреть и слушать онлайн?  


     Отправить личное сообщение
   
Страница 1 из 1
Показать сообщения за:  Поле сортировки  
Начать новую тему Ответить на тему

   Похожие торренты   Автор   Ответы   Просмотры   Последнее сообщение 
В этой теме нет новых непрочитанных сообщений. Скачать торрент Конгресс / The Congress (2013) DVDRip | P

в форуме Фантастика, Фэнтези, Размер: 1.46 ГБ, Здоровье: 100%

Anonymous

0
130|1

44
574

11 апр 2014, 09:29

Anonymous Перейти к последнему сообщению

В этой теме нет новых непрочитанных сообщений. Скачать торрент Проверен Paul Simon and Friends: The Library of Congress Gershwin Prize for Popular Song (720p) [2009, Folk-Rock, BDRip]

в форуме Концерты (HD-Video), Размер: 4.38 ГБ, Здоровье: 100%

Anonymous

0
5|2

1
0

23 окт 2016, 18:43

Anonymous Перейти к последнему сообщению

В этой теме нет новых непрочитанных сообщений. Скачать торрент Проверен Лем Станислав - Футурологический конгресс [Макушев Михаил (ЛИ), 2011 г., 128, MP3]

в форуме Зарубежная фантастика, фэнтези, мистика, ужасы, Размер: 191.95 МБ, Здоровье: 0%

Anonymous

0
0|0

2
0

11 сен 2016, 12:48

Anonymous Перейти к последнему сообщению

В этой теме нет новых непрочитанных сообщений. Скачать торрент Проверен Лем Станислав - Футурологический Конгресс [Влад Копп, 2003, 192 kbps]

в форуме Зарубежная фантастика, фэнтези, мистика, ужасы, Размер: 617.95 МБ, Здоровье: 0%

Anonymous

0
0|0

0
0

11 сен 2016, 12:08

Anonymous Перейти к последнему сообщению

В этой теме нет новых непрочитанных сообщений. Скачать торрент Проверен Feuertanz Festival 2013 [2013, Folk Rock/Metal, BDRip 1080p]

в форуме Концерты (HD-Video), Размер: 9.84 ГБ, Здоровье: 100%

Anonymous

0
2|1

0
0

23 окт 2016, 13:38

Anonymous Перейти к последнему сообщению



Сейчас этот форум просматривают: нет зарегистрированных пользователей и гости: 1


Вы не можете начинать темы
Вы не можете отвечать на сообщения
Вы не можете редактировать свои сообщения
Вы не можете удалять свои сообщения
Вы не можете добавлять вложения

Перейти:  

!ВНИМАНИЕ!
 Ресурс не предоставляет электронные версии произведений, а занимается лишь коллекционированием и каталогизацией ссылок, присылаемых и публикуемых на форуме нашими читателями. Если вы являетесь правообладателем какого-либо представленного материала и не желаете чтобы ссылка на него находилась в нашем каталоге, свяжитесь с нами и мы незамедлительно удалим её. Файлы для обмена на трекере предоставлены пользователями сайта, и администрация не несёт ответственности за их содержание. Просьба не заливать файлы, защищенные авторскими правами, а также файлы нелегального содержания!