На всех торрентах на трекере установлена скидка на скачивание в размере 100 процентов(а).
 Возможность скачивания торрента НЕ зависит от ограничений при низком ратио, низком аплоаде, требуемом ратио или требуемом аплоаде.


Начать новую тему Ответить на тему
Статистика раздачи
Размер: 7.75 ГБ | Добавлен: 18 май 2014, 23:20 | Скачали: 0
Сидеров: 7  [0 байт/сек]    Личеров: 1  [0 байт/сек]
Пред. тема | След. тема 

Автор
Сообщение

СообщениеДобавлено: 18 май 2014, 23:20 

Видимость гнева / The Upside of Anger (2005) BDRip

Год выпуска: 2005
Жанр: Драма, Комедия

Описание фильма:
После неожиданного исчезновения мужа и главы семейства Тери Вольфмайер, обычная провинциальная домохозяйка, вынуждена в одиночку заботиться сразу о четырех дочках. Постепенно, для растерянной Терри единственным утешением становится алкоголь. Но однажды Терри знакомится с соседом по имени Дэнни, бывшим бейсболистом, а ныне ведущим на радио. Терри серьезно влюбляется в своего нового друга. Он возвращает ей волю к жизни и частично заменяет дочерям Терри отца. Но девочки решают обернуть ситуацию в свою пользу. Они оказываются в трудном положении, так как с этих пор им приходится решать не только свои проблемы, но и проблемы матери. Ситуация осложняется, когда Терри обнаруживает, что привязанность ее детей к Дэнни идет в разрез с ее собственными интересами…

Режиссер: Майк Байндер
Актеры: Джоан Аллен, Кевин Костнер, Эрика Кристенсен, Кери Рассел, Алисия Уитт, Ивэн Рэйчел Вуд, Майк Байндер, Том Харпер, Дэйн Кристенсен, Дэниэл Уэбб

Продолжительность: 01:56:46
Качество видео: BDRip
Перевод: Двухголосый закадровый (2 вида), Авторский (Е.Рудой)
Язык субтитров: Русский, Английский
Вид субтитров: Вшитые (Отключаемые)



Дата мировой премьеры: 23 января 2005
Дата российской премьеры: 1 июля 2005, «Централ Партнершип»
Дата выхода DVD релиза: 4 августа 2005, «CP-Digital»

Видеокодек: MPEG-4 AVC/H.264
Битрейт видео: ~8104 Кбит/сек
Размер кадра: 1920 x 814
Аудио 1: Русский (AC-3, 192 Кбит/сек, 2 канала(ов), 48,0 КГц, 16-bit) / Двухголосый закадровый, R5
Аудио 2: Русский (AC-3, 192 Кбит/сек, 2 канала(ов), 48,0 КГц, 16-bit) / Двухголосый закадровый, Tycoon
Аудио 3: Русский (AC-3, 384 Кбит/сек, 6 канала(ов), 48,0 КГц, 16-bit) / Одноголосый закадровый, Е.Рудой
Аудио 4: Английский (AC-3, 640 Кбит/сек, 6 канала(ов), 48,0 КГц, 16-bit) - Оригинал
Сэмпл: Ссылка
Общее
Уникальный идентификатор : 243615429838518803995514212081438640035 (0xB746A00821AB1EC4B357DC0D44E947A3)
Полное имя : I:\HD\Видимость гнева (2005)\Vidimost.gneva.(2005).BDRip.1080p.mkv
Формат : Matroska
Версия формата : Version 2
Размер файла : 7,75 Гбайт
Продолжительность : 1 ч. 56 м.
Общий поток : 9504 Кбит/сек
Дата кодирования : UTC 2014-05-18 06:53:11
Программа кодирования : mkvmerge v3.4.0 ('Rapunzel') сборка от May 15 2010 09:38:20
Библиотека кодирования : libebml v0.8.0 + libmatroska v0.9.0

Видео
Идентификатор : 1
Формат : AVC
Формат/Информация : Advanced Video Codec
Профиль формата :
Параметр CABAC формата : Да
Параметр ReFrames формата : 5 кадров
Идентификатор кодека : V_MPEG4/ISO/AVC
Продолжительность : 1 ч. 56 м.
Битрейт : 8104 Кбит/сек
Ширина : 1920 пикселей
Высота : 814 пикселей
Соотношение сторон : 2,35:1
Режим частоты кадров : Постоянный
Частота кадров : 23,976 кадра/сек
Цветовое пространство : YUV
Субдискретизация насыщенности : 4:2:0
Битовая глубина : 8 бит
Тип развёртки : Прогрессивная
Бит/(Пиксели*Кадры) : 0.216
Размер потока : 6,45 Гбайт (83%)
Библиотека кодирования : x264 core 142 r2409 d6b4e63
Настройки программы : cabac=1 / ref=5 / deblock=1:-3:-3 / analyse=0x3:0x133 / me=umh / subme=11 / psy=1 / psy_rd=1.00:0.00 / mixed_ref=1 / me_range=32 / chroma_me=1 / trellis=2 / 8x8dct=1 / cqm=0 / deadzone=21,11 / fast_pskip=0 / chroma_qp_offset=-2 / threads=12 / lookahead_threads=1 / sliced_threads=0 / nr=0 / decimate=1 / interlaced=0 / bluray_compat=0 / constrained_intra=0 / bframes=5 / b_pyramid=2 / b_adapt=2 / b_bias=0 / direct=3 / weightb=1 / open_gop=0 / weightp=2 / keyint=240 / keyint_min=23 / scenecut=40 / intra_refresh=0 / rc=2pass / mbtree=0 / bitrate=8104 / ratetol=2.0 / qcomp=0.60 / qpmin=0 / qpmax=69 / qpstep=4 / cplxblur=20.0 / qblur=0.5 / ip_ratio=1.40 / pb_ratio=1.30 / aq=2:0.90
Язык : English
Default : Нет
Forced : Нет

Аудио #1
Идентификатор : 2
Формат : AC-3
Формат/Информация : Audio Coding 3
Расширение режима : CM (complete main)
Параметр Endianness формата : Big
Идентификатор кодека : A_AC3
Продолжительность : 1 ч. 56 м.
Вид битрейта : Постоянный
Битрейт : 192 Кбит/сек
Каналы : 2 канала
Расположение каналов : Front: L R
Частота : 48,0 КГц
Битовая глубина : 16 бит
Метод сжатия : С потерями
Размер потока : 160 Мбайт (2%)
Заголовок : R5
Язык : Russian
Default : Нет
Forced : Нет

Аудио #2
Идентификатор : 3
Формат : AC-3
Формат/Информация : Audio Coding 3
Расширение режима : CM (complete main)
Параметр Endianness формата : Big
Идентификатор кодека : A_AC3
Продолжительность : 1 ч. 56 м.
Вид битрейта : Постоянный
Битрейт : 192 Кбит/сек
Каналы : 2 канала
Расположение каналов : Front: L R
Частота : 48,0 КГц
Битовая глубина : 16 бит
Метод сжатия : С потерями
Размер потока : 160 Мбайт (2%)
Заголовок : Tycoon
Язык : Russian
Default : Нет
Forced : Нет

Аудио #3
Идентификатор : 4
Формат : AC-3
Формат/Информация : Audio Coding 3
Расширение режима : CM (complete main)
Параметр Endianness формата : Big
Идентификатор кодека : A_AC3
Продолжительность : 1 ч. 56 м.
Вид битрейта : Постоянный
Битрейт : 384 Кбит/сек
Каналы : 6 каналов
Расположение каналов : Front: L C R, Side: L R, LFE
Частота : 48,0 КГц
Битовая глубина : 16 бит
Метод сжатия : С потерями
Размер потока : 321 Мбайт (4%)
Заголовок : Rudoj
Язык : Russian
Default : Нет
Forced : Нет

Аудио #4
Идентификатор : 5
Формат : AC-3
Формат/Информация : Audio Coding 3
Расширение режима : CM (complete main)
Параметр Endianness формата : Big
Идентификатор кодека : A_AC3
Продолжительность : 1 ч. 56 м.
Вид битрейта : Постоянный
Битрейт : 640 Кбит/сек
Каналы : 6 каналов
Расположение каналов : Front: L C R, Side: L R, LFE
Частота : 48,0 КГц
Битовая глубина : 16 бит
Метод сжатия : С потерями
Размер потока : 535 Мбайт (7%)
Заголовок : Eng
Язык : English
Default : Нет
Forced : Нет

Текст #1
Идентификатор : 6
Формат : UTF-8
Идентификатор кодека : S_TEXT/UTF8
Идентификатор кодека/Информация : UTF-8 Plain Text
Заголовок : full
Язык : Russian
Default : Нет
Forced : Нет

Текст #2
Идентификатор : 7
Формат : UTF-8
Идентификатор кодека : S_TEXT/UTF8
Идентификатор кодека/Информация : UTF-8 Plain Text
Заголовок : full
Язык : English
Default : Нет
Forced : Нет

Меню
00:00:00.000 : :Chapter 01
00:08:21.334 : :Chapter 02
00:16:09.093 : :Chapter 03
00:24:54.659 : :Chapter 04
00:33:03.064 : :Chapter 05
00:42:59.034 : :Chapter 06
00:50:40.746 : :Chapter 07
00:58:03.229 : :Chapter 08
01:07:01.308 : :Chapter 09
01:14:15.908 : :Chapter 10
01:22:03.167 : :Chapter 11
01:29:08.216 : :Chapter 12
01:38:09.049 : :Chapter 13
01:46:26.796 : :Chapter 14
За исходный диск спасибо

Цитата:
Цитата:
Цитата:
Кто-то писал:
Исходный диск приобретен в рамках сервиса "Копилка: Помоги с Blu-ray".
Благодарности: irrlicht, gelom, tambov68.


Скриншоты:






загрузка...
Правила, инструкции, FAQ!!!
Торрент  Добавлен [18 май 2014, 23:20] Скачать торрент
Скачать торрент
[ Размер 39.48 КБ / Просмотров 10 ]

Статус
Проверен 
 
Размер  7.75 ГБ
Приватный: Нет (DHT включён)
.torrent скачан  0
Как залить торрент? | Как скачать Torrent? | Как смотреть и слушать онлайн?  


     Отправить личное сообщение
   
Страница 1 из 1
Показать сообщения за:  Поле сортировки  
Начать новую тему Ответить на тему

   Похожие торренты   Автор   Ответы   Просмотры   Последнее сообщение 
В этой теме нет новых непрочитанных сообщений. Скачать торрент Проверен [ADVD][CO] Metallica - Surrounded By Anger - 2005 (St.Anger)

в форуме DTS CD / SACD-R, Размер: 1.07 ГБ, Здоровье: 100%

Anonymous

0
5|2

6
1

28 окт 2016, 22:31

Anonymous Перейти к последнему сообщению

В этой теме нет новых непрочитанных сообщений. Скачать торрент Проверен (Hard Rock | Alternative) Anger Radio - Rise of Anger - 2014, MP3, 320 kbps

в форуме Classic Rock & Hard Rock, Размер: 88.37 МБ, Здоровье: 0%

Anonymous

0
0|0

0
0

13 ноя 2016, 12:05

Anonymous Перейти к последнему сообщению

В этой теме нет новых непрочитанных сообщений. Скачать торрент Управление гневом / Anger Management (2003) BDRip

в форуме Комедии, Размер: 2.18 ГБ, Здоровье: 100%

Anonymous

0
1|0

88
1

09 мар 2014, 09:31

Anonymous Перейти к последнему сообщению

В этой теме нет новых непрочитанных сообщений. Скачать торрент Проверен Параллельные миры / Upside Down (Хуан Диего Соланас / Juan Solanas) [2011, фэнтези, мелодрама, BDRip, 480p] DUB, Original + sub(rus, eng)

в форуме Фильмы для iPod, iPhone, iPad, Размер: 1.56 ГБ, Здоровье: 100%

Гость

0
23|8

18
0

11 май 2015, 01:31

Гость Перейти к последнему сообщению

В этой теме нет новых непрочитанных сообщений. Скачать торрент Изо всех сил / Over the Top (2005) BDRip 1080p | P, P2, A

в форуме 720p | 1080p, Размер: 7.75 ГБ, Здоровье: 0%

Anonymous

0
0|0

22
0

14 мар 2014, 08:10

Anonymous Перейти к последнему сообщению



Сейчас этот форум просматривают: нет зарегистрированных пользователей и гости: 2


Вы не можете начинать темы
Вы не можете отвечать на сообщения
Вы не можете редактировать свои сообщения
Вы не можете удалять свои сообщения
Вы не можете добавлять вложения

Перейти:  

!ВНИМАНИЕ!
 Ресурс не предоставляет электронные версии произведений, а занимается лишь коллекционированием и каталогизацией ссылок, присылаемых и публикуемых на форуме нашими читателями. Если вы являетесь правообладателем какого-либо представленного материала и не желаете чтобы ссылка на него находилась в нашем каталоге, свяжитесь с нами и мы незамедлительно удалим её. Файлы для обмена на трекере предоставлены пользователями сайта, и администрация не несёт ответственности за их содержание. Просьба не заливать файлы, защищенные авторскими правами, а также файлы нелегального содержания!