На всех торрентах на трекере установлена скидка на скачивание в размере 100 процентов(а).
 Возможность скачивания торрента НЕ зависит от ограничений при низком ратио, низком аплоаде, требуемом ратио или требуемом аплоаде.


Начать новую тему Ответить на тему
Статистика раздачи
Размер: 4.51 ГБ | Добавлен: 18 май 2014, 21:42 | Скачали: 35
Сидеров: 11  [0 байт/сек]    Личеров: 0  [0 байт/сек]
Пред. тема | След. тема 

Автор
Сообщение

СообщениеДобавлено: 18 май 2014, 21:42 

Название: Ночной дрaйв
Оригинальное название: Night Drivе
Год выхода: 2010
Жанр: ужасы, триллер
Режиссер: Джастин Хэд

В ролях: Крис Бисли, Корин Ду Ту, Брэндон Оре, Грег Мелвилл-Смит, Юли Мазитенг, Лерой Гопал, Дэвид Шервуд, Клер Маршалл, Антонио Дэвид Лайонс

О фильме:
«Ночным драйвом» зовутся устраиваемые для туристов обзорные поездки по южноафриканской саванне. В ходе очередной экскурсии разношёрстная группа отдыхающих вместо природных красот натыкается на истерзанный женский труп. Один из проводников приписывает нападение легендарному демону, другой же знает, что в регионе орудует банда фанатичных отморозков, помимо браконьерства устраивающая охоты на людей.



Выпущено: ЮАР
Продолжительность: 01:39:33
Озвучивание: Профессиональное (многоголосое) [online movies - IVI]


Формат: MKV
Качество: BDRip 720p [D0CUMENT]
Видео: 5842 kb/s, 1280x720
Аудио: Russian: AC3, 192 kb/s (2 ch) / English: AC3, 448 kb/s (2 ch)

Скачать: Сэмпл

Релиз группы:



Общее
Night.Drive.2010.Blu.Ray.720p.CINEMANIA.mkv
Формат : Matroska
Версия формата : Version 4 / Version 2
Размер файла : 4,51 Гбайт
Продолжительность : 1 ч. 39 м.
Общий поток : 6481 Кбит/сек
Название фильма : Release Group CINEMANIA
Дата кодирования : UTC 2014-05-17 11:55:49
Программа кодирования : mkvmerge v6.9.1 ('Blue Panther') 64bit built on Apr 18 2014 18:23:38
Библиотека кодирования : libebml v1.3.0 + libmatroska v1.4.1

Видео
Идентификатор : 1
Формат : AVC
Формат/Информация : Advanced Video Codec
Профиль формата : High@L4.1
Параметр CABAC формата : Да
Параметр ReFrames формата : 5 кадров
Идентификатор кодека : V_MPEG4/ISO/AVC
Продолжительность : 1 ч. 39 м.
Битрейт : 5842 Кбит/сек
Ширина : 1280 пикселей
Высота : 720 пикселей
Соотношение сторон : 16:9
Режим частоты кадров : Постоянный
Частота кадров : 29,970 кадров/сек
Цветовое пространство : YUV
Субдискретизация насыщенности : 4:2:0
Битовая глубина : 8 бит
Тип развёртки : Прогрессивная
Бит/(Пиксели*Кадры) : 0.212
Размер потока : 3,97 Гбайт (88%)
Заголовок : Release Group CINEMANIA
Библиотека кодирования : x264 core 122 r2184 5c85e0a
Настройки программы : cabac=1 / ref=5 / deblock=1:0:0 / analyse=0x3:0x133 / me=umh / subme=7 / psy=1 / psy_rd=1.00:0.00 / mixed_ref=1 / me_range=16 / chroma_me=1 / trellis=1 / 8x8dct=1 / cqm=0 / deadzone=21,11 / fast_pskip=0 / chroma_qp_offset=-2 / threads=6 / sliced_threads=0 / nr=0 / decimate=1 / interlaced=0 / bluray_compat=0 / constrained_intra=0 / bframes=3 / b_pyramid=2 / b_adapt=2 / b_bias=0 / direct=3 / weightb=1 / open_gop=0 / weightp=2 / keyint=250 / keyint_min=25 / scenecut=40 / intra_refresh=0 / rc_lookahead=50 / rc=2pass / mbtree=1 / bitrate=5842 / ratetol=1.0 / qcomp=0.60 / qpmin=0 / qpmax=69 / qpstep=4 / cplxblur=20.0 / qblur=0.5 / ip_ratio=1.40 / aq=1:1.00
Язык : English
Default : Да
Forced : Нет

Аудио #1
Идентификатор : 2
Формат : AC-3
Формат/Информация : Audio Coding 3
Расширение режима : CM (complete main)
Параметр Endianness формата : Big
Идентификатор кодека : A_AC3
Продолжительность : 1 ч. 39 м.
Вид битрейта : Постоянный
Битрейт : 192 Кбит/сек
Каналы : 2 канала
Расположение каналов : Front: L R
Частота : 48,0 КГц
Битовая глубина : 16 бит
Метод сжатия : С потерями
Размер потока : 137 Мбайт (3%)
Заголовок : IVI
Язык : Russian
Default : Да
Forced : Да

Аудио #2
Идентификатор : 3
Формат : AC-3
Формат/Информация : Audio Coding 3
Расширение режима : CM (complete main)
Параметр Endianness формата : Big
Идентификатор кодека : A_AC3
Продолжительность : 1 ч. 39 м.
Вид битрейта : Постоянный
Битрейт : 448 Кбит/сек
Каналы : 2 канала
Расположение каналов : Front: L R
Частота : 48,0 КГц
Битовая глубина : 16 бит
Метод сжатия : С потерями
Размер потока : 319 Мбайт (7%)
Язык : English
Default : Нет
Forced : Нет
загрузка...
Правила, инструкции, FAQ!!!
Торрент  Добавлен [18 май 2014, 21:42] Скачать торрент
Скачать торрент
[ Размер 23.1 КБ / Просмотров 12 ]

Статус
Проверен 
 
Размер  4.51 ГБ
Приватный: Нет (DHT включён)
.torrent скачан  35
Как залить торрент? | Как скачать Torrent? | Как смотреть и слушать онлайн?  


     Отправить личное сообщение
   
Страница 1 из 1
Показать сообщения за:  Поле сортировки  
Начать новую тему Ответить на тему

   Похожие торренты   Автор   Ответы   Просмотры   Последнее сообщение 
В этой теме нет новых непрочитанных сообщений. Скачать торрент Проверен Ночной дозор / Night Watch (Тимур Бекмамбетов) [2004, Россия, ужасы, боевик, триллер, фэнтези, BDRip 720p]

в форуме Наше кино (HD Video), Размер: 4.37 ГБ, Здоровье: 100%

Anonymous

0
26|8

54
0

12 апр 2015, 11:04

Anonymous Перейти к последнему сообщению

В этой теме нет новых непрочитанных сообщений. Скачать торрент Малхолланд Драйв / Mulholland Drive / Mulholland Dr. (2001) BDRip

в форуме Триллеры, Размер: 2.91 ГБ, Здоровье: 100%

Anonymous

0
62|0

29
21

18 янв 2014, 21:14

Anonymous Перейти к последнему сообщению

В этой теме нет новых непрочитанных сообщений. Скачать торрент Проверен Ночной беглец / Run All Night (2015) BDRip 1080p | iTunes

в форуме 720p | 1080p, Размер: 9.2 ГБ, Здоровье: 100%

Anonymous

0
613|301

203
1315

29 июн 2015, 22:37

Anonymous Перейти к последнему сообщению

В этой теме нет новых непрочитанных сообщений. Скачать торрент Проверен Джесси Стоун: Ночной визит / Jesse Stone: Night Passage (2006) WEB-DL 720p | P

в форуме 720p | 1080p, Размер: 2.94 ГБ, Здоровье: 100%

Гость

0
25|5

239
80

19 дек 2015, 18:06

Гость Перейти к последнему сообщению

В этой теме нет новых непрочитанных сообщений. Скачать торрент Проверен Драйв / Непобедимый / Drive [1997, США, боевик, DVDRip] [Режиссёрская Версия]

в форуме Боевики, Размер: 1.46 ГБ, Здоровье: 100%

Anonymous

0
78|12

98
2

14 ноя 2014, 19:12

Anonymous Перейти к последнему сообщению



Сейчас этот форум просматривают: Google [Bot] и гости: 1


Вы не можете начинать темы
Вы не можете отвечать на сообщения
Вы не можете редактировать свои сообщения
Вы не можете удалять свои сообщения
Вы не можете добавлять вложения

Перейти:  

!ВНИМАНИЕ!
 Ресурс не предоставляет электронные версии произведений, а занимается лишь коллекционированием и каталогизацией ссылок, присылаемых и публикуемых на форуме нашими читателями. Если вы являетесь правообладателем какого-либо представленного материала и не желаете чтобы ссылка на него находилась в нашем каталоге, свяжитесь с нами и мы незамедлительно удалим её. Файлы для обмена на трекере предоставлены пользователями сайта, и администрация не несёт ответственности за их содержание. Просьба не заливать файлы, защищенные авторскими правами, а также файлы нелегального содержания!