На всех торрентах на трекере установлена скидка на скачивание в размере 100 процентов(а).
 Возможность скачивания торрента НЕ зависит от ограничений при низком ратио, низком аплоаде, требуемом ратио или требуемом аплоаде.


Начать новую тему Ответить на тему
Статистика раздачи
Размер: 5.77 ГБ | Добавлен: 18 май 2014, 21:36 | Скачали: 139
Сидеров: 16  [0 байт/сек]    Личеров: 0  [0 байт/сек]
Пред. тема | След. тема 

Автор
Сообщение

СообщениеДобавлено: 18 май 2014, 21:36 


Страна: Франция, США, Бельгия / Belgacom, Ce Qui Me Meut Motion Pictures, Compagnie Cinématographique, La, Opposite Field Pictures, Panache Productions

Жанр: драма, мелодрама, комедия
Год выпуска: 2013
Продолжительность: 01:57:16

Перевод: Профессиональный (дублированный)
Cубтитры: русский, русский (форсированный), французский, английский
Оригинальная аудиодорожка: французский

Режиссер: Седрик Клапиш / Cédric Klapisch

В ролях: Ромен Дюрис, Одри Тоту, Сесиль Де Франс, Келли Райлли, Сандрин Холт, Флоре Бонавентура, Йохен Хаэгеле, Бенуа Жако, Пабло Мюнье-Жакоб, Марго Мансар...

Роли дублировали: Дмитрий Поляновский, Ольга Голованова, Ольга Сирина, Мария Овчинникова, Анастасия Лапина...

Описание: Очаровательная, остроумная, легкая, яркая история взаимоотношений писателя-парижанина Ксавье и трех главных женщин его жизни. Изобилие великолепных режиссерских находок, хорошей музыки, любви и человеческой теплоты.
Ксавье, покуролесивший в молодости в поисках идеальной женщины, в тридцать с копейками, казалось, успокоился: теперь он женат на англичанке Венди, с которой учился когда-то в барселонском университете, у них родились сын и дочь. И вдруг Венди решила развестись. Взяв детей, она уехала в Нью-Йорк. Через некоторое время и Ксавье последовал за семьей. В Новом Свете все запутывается, как в китайской головоломке: у Венди уже есть состоятельный бойфренд, а сам Ксавье, оказав товарищескую помощь подруге-лезбиянке Изабель, вот-вот опять станет отцом (хотя и суррогатным), ради вида на жительство ему приходиться фиктивно жениться на американке, а вскоре приезжает Мартина, которую он давным-давно любил и, как выясняется, не разлюбил...



Качество: BDRip 720p
Формат: MKV

Видео: 1280x688 (1.85:1), 24.000 fps, MPEG-4 AVC ~ 5153 kbps avg, 0.244 bit/pixel
Аудио 1: 48 kHz, Dolby AC3, 6 ch, 384 kbps, русский
Аудио 2: 48 kHz, DTS, 6 ch, 1536 kbps, французский
Формат субтитров: SoftSub (srt)

Раздача от:
Общее
Полное имя : Kitayskaya.golovolomka.2013.D.BDRip.720p.New-Team.mkv
Формат : Matroska
Версия формата : Version 4 / Version 2
Размер файла : 5,77 Гбайт
Продолжительность : 1 ч. 57 м.
Общий поток : 7047 Кбит/сек
Дата кодирования : UTC 2014-05-17 08:19:05
Программа кодирования : mkvmerge v6.9.1 ('Blue Panther') 64bit built on Apr 18 2014 18:23:38
Библиотека кодирования : libebml v1.3.0 + libmatroska v1.4.1

Видео
Идентификатор : 1
Формат : AVC
Формат/Информация : Advanced Video Codec
Профиль формата : High@L4.1
Параметр CABAC формата : Да
Параметр ReFrames формата : 5 кадров
Идентификатор кодека : V_MPEG4/ISO/AVC
Продолжительность : 1 ч. 57 м.
Битрейт : 5153 Кбит/сек
Ширина : 1280 пикселей
Высота : 688 пикселей
Соотношение сторон : 1,85:1
Режим частоты кадров : Постоянный
Частота кадров : 24,000 кадра/сек
Цветовое пространство : YUV
Субдискретизация насыщенности : 4:2:0
Битовая глубина : 8 бит
Тип развёртки : Прогрессивная
Бит/(Пиксели*Кадры) : 0.244
Размер потока : 4,11 Гбайт (71%)
Библиотека кодирования : x264 core 142 r2409 d6b4e63
Настройки программы : cabac=1 / ref=5 / deblock=1:0:0 / analyse=0x3:0x133 / me=umh / subme=8 / psy=1 / psy_rd=1.00:0.00 / mixed_ref=1 / me_range=16 / chroma_me=1 / trellis=1 / 8x8dct=1 / cqm=0 / deadzone=21,11 / fast_pskip=0 / chroma_qp_offset=-2 / threads=12 / lookahead_threads=2 / sliced_threads=0 / nr=0 / decimate=1 / interlaced=0 / bluray_compat=0 / constrained_intra=0 / bframes=3 / b_pyramid=2 / b_adapt=2 / b_bias=0 / direct=3 / weightb=1 / open_gop=0 / weightp=2 / keyint=250 / keyint_min=24 / scenecut=40 / intra_refresh=0 / rc_lookahead=50 / rc=2pass / mbtree=1 / bitrate=5153 / ratetol=1.0 / qcomp=0.60 / qpmin=0 / qpmax=69 / qpstep=4 / cplxblur=20.0 / qblur=0.5 / ip_ratio=1.40 / aq=1:1.00
Язык : French
Default : Да
Forced : Нет

Аудио #1
Идентификатор : 2
Формат : AC-3
Формат/Информация : Audio Coding 3
Расширение режима : CM (complete main)
Параметр Endianness формата : Big
Идентификатор кодека : A_AC3
Продолжительность : 1 ч. 57 м.
Вид битрейта : Постоянный
Битрейт : 384 Кбит/сек
Каналы : 6 каналов
Расположение каналов : Front: L C R, Side: L R, LFE
Частота : 48,0 КГц
Битовая глубина : 16 бит
Метод сжатия : С потерями
Размер потока : 322 Мбайт (5%)
Язык : Russian
Default : Да
Forced : Нет

Аудио #2
Идентификатор : 3
Формат : DTS
Формат/Информация : Digital Theater Systems
Режим : 16
Параметр Endianness формата : Big
Идентификатор кодека : A_DTS
Продолжительность : 1 ч. 57 м.
Вид битрейта : Постоянный
Битрейт : 1509 Кбит/сек
Каналы : 6 каналов
Расположение каналов : Front: L C R, Side: L R, LFE
Частота : 48,0 КГц
Битовая глубина : 24 бит
Метод сжатия : С потерями
Размер потока : 1,24 Гбайт (21%)
Заголовок : French
Язык : French
Default : Нет
Forced : Нет

Текст #1
Идентификатор : 4
Формат : UTF-8
Идентификатор кодека : S_TEXT/UTF8
Идентификатор кодека/Информация : UTF-8 Plain Text
Язык : Russian
Default : Да
Forced : Нет

Текст #2
Идентификатор : 5
Формат : UTF-8
Идентификатор кодека : S_TEXT/UTF8
Идентификатор кодека/Информация : UTF-8 Plain Text
Язык : Russian
Default : Нет
Forced : Нет

Текст #3
Идентификатор : 6
Формат : UTF-8
Идентификатор кодека : S_TEXT/UTF8
Идентификатор кодека/Информация : UTF-8 Plain Text
Язык : French
Default : Нет
Forced : Нет

Текст #4
Идентификатор : 7
Формат : UTF-8
Идентификатор кодека : S_TEXT/UTF8
Идентификатор кодека/Информация : UTF-8 Plain Text
Язык : English
Default : Нет
Forced : Нет

Меню
00:00:00.000 : en:00:00:00.000
00:09:09.583 : en:00:09:09.583
00:18:13.875 : en:00:18:13.875
00:24:56.125 : en:00:24:56.125
00:37:13.833 : en:00:37:13.833
00:46:43.542 : en:00:46:43.542
00:55:17.083 : en:00:55:17.083
01:04:30.500 : en:01:04:30.500
01:16:34.625 : en:01:16:34.625
01:23:52.667 : en:01:23:52.667
01:35:12.292 : en:01:35:12.292
01:46:16.792 : en:01:46:16.792


загрузка...
Правила, инструкции, FAQ!!!
Торрент  Добавлен [18 май 2014, 21:36] Скачать торрент
Скачать торрент
[ Размер 15.13 КБ / Просмотров 5 ]

Статус
Проверен 
 
Размер  5.77 ГБ
Приватный: Нет (DHT включён)
.torrent скачан  139
Как залить торрент? | Как скачать Torrent? | Как смотреть и слушать онлайн?  


     Отправить личное сообщение
   
Страница 1 из 1
Показать сообщения за:  Поле сортировки  
Начать новую тему Ответить на тему

   Похожие торренты   Автор   Ответы   Просмотры   Последнее сообщение 
В этой теме нет новых непрочитанных сообщений. Скачать торрент Китайская головоломка / Casse-tte chinois / Chinese Puzzle (2013) HDRip

в форуме Драмы, Мелодрамы, Размер: 2.05 ГБ, Здоровье: 100%

Anonymous

0
22|1

62
0

17 май 2014, 18:58

Anonymous Перейти к последнему сообщению

В этой теме нет новых непрочитанных сообщений. Скачать торрент Проверен Парад идиотов / Le bal des casse-pieds (1992) BDRip 720p | P

в форуме 720p | 1080p, Размер: 4.46 ГБ, Здоровье: 100%

Anonymous

0
38|23

20
157

29 ноя 2014, 14:38

Anonymous Перейти к последнему сообщению

В этой теме нет новых непрочитанных сообщений. Скачать торрент Проверен (PopMusic) Murray Head - Tete a Tete - 2007, APE (image + .cue), lossless

в форуме Зарубежная музыка, Размер: 333.15 МБ, Здоровье: 0%

Anonymous

0
0|0

8
1

15 авг 2016, 17:52

Anonymous Перейти к последнему сообщению

В этой теме нет новых непрочитанных сообщений. Скачать торрент Проверен (Modern Electric Blues, Soul- Blues) Andy Aledort and Lucky Peterson - Tete a Tete - 2007, FLAC (image+.cue), lossless

в форуме Blues (Texas, Chicago, Modern and Others), Размер: 359.78 МБ, Здоровье: 100%

Anonymous

0
3|2

2
0

15 окт 2016, 19:49

Anonymous Перейти к последнему сообщению

В этой теме нет новых непрочитанных сообщений. Скачать торрент Проверен Джо / Joe (2013) BDRip 720p | P | Лицензия

в форуме 720p | 1080p, Размер: 2.23 ГБ, Здоровье: 100%

Anonymous

0
122|2

42
1533

30 июл 2014, 21:50

Anonymous Перейти к последнему сообщению



Сейчас этот форум просматривают: нет зарегистрированных пользователей и гости: 1


Вы не можете начинать темы
Вы не можете отвечать на сообщения
Вы не можете редактировать свои сообщения
Вы не можете удалять свои сообщения
Вы не можете добавлять вложения

Перейти:  

!ВНИМАНИЕ!
 Ресурс не предоставляет электронные версии произведений, а занимается лишь коллекционированием и каталогизацией ссылок, присылаемых и публикуемых на форуме нашими читателями. Если вы являетесь правообладателем какого-либо представленного материала и не желаете чтобы ссылка на него находилась в нашем каталоге, свяжитесь с нами и мы незамедлительно удалим её. Файлы для обмена на трекере предоставлены пользователями сайта, и администрация не несёт ответственности за их содержание. Просьба не заливать файлы, защищенные авторскими правами, а также файлы нелегального содержания!