На всех торрентах на трекере установлена скидка на скачивание в размере 100 процентов(а).
 Возможность скачивания торрента НЕ зависит от ограничений при низком ратио, низком аплоаде, требуемом ратио или требуемом аплоаде.


Начать новую тему Ответить на тему
Статистика раздачи
Размер: 1.45 ГБ | Добавлен: 15 янв 2013, 22:26 | Скачали: 0
Сидеров: 0  [0 байт/сек]    Личеров: 0  [0 байт/сек]
Пред. тема | След. тема 

Автор
Сообщение

СообщениеДобавлено: 15 янв 2013, 22:26 

Информация о фильме
Название: Звонок
Оригинальное название: The Ring
Год выхода: 2002
Жанр: ужасы, триллер, детектив
Режиссер: Гор Вербински

В ролях: Наоми Уоттс, Мартин Хендерсон, Дэвид Дорфман, Брайан Кокс, Джейн Александр, Линдси Фрост, Эмбер Тэмблин, Рейчел Белла, Дэйви Чейз, Шэннон Кокрен

О фильме: Телефонный звонок следует после просмотра некой загадочной видеокассеты, после чего каждый посмотревший ее умирает. Жертве дается лишь одна неделя, а дальше следует неминуемая смерть.

Главная героиня Рэйчел — журналистка, расследует эти страшные события, и случайно кассета попадает к ее сыну, над которым также нависает смертельная угроза. Теперь ей предстоит гонка со смертью в попытке хоть что-то изменить и найти объяснение всему происходящему…



Страна: США, Япония
Продолжительность: 01:55:18
Перевод: Дублированный

Файл
Формат: mkv
Кодек: x.264
Качество: BDRip-AVC
Видео: 1024x554 (16:9), 23.976 fps, 1416 kbps, 0.104 bit/pixel
Звук: 48 kHz, AC3 5.1, 384.00 kbps



Общее
Уникальный идентификатор : 242363402460298783202433167070239953063 (0xB6557E50EA99EC10A1D49D52905490A7)
Полное имя : D:The Ring.2002.BDRip-AVC.mkv
Формат : Matroska
Версия формата : Version 4 / Version 2
Размер файла : 1,45 Гбайт
Продолжительность : 1 ч. 55 м.
Общий поток : 1801 Кбит/сек
Название фильма : Звонок / The Ring (2002) BDRip-AVC rip by Rulya74
Дата кодирования : UTC 2010-02-22 21:41:31
Программа кодирования : mkvmerge v5.9.0 ('On The Loose') built on Dec 9 2012 15:37:01
Библиотека кодирования : libebml v1.3.0 + libmatroska v1.4.0

Видео
Идентификатор : 1
Формат : AVC
Формат/Информация : Advanced Video Codec
Профиль формата : High@L4.1
Параметр CABAC формата : Да
Параметр ReFrames формата : 12 кадров
Идентификатор кодека : V_MPEG4/ISO/AVC
Продолжительность : 1 ч. 55 м.
Битрейт : 1416 Кбит/сек
Ширина : 1024 пикселя
Высота : 554 пикселя
Соотношение сторон : 16:9
Частота кадров : 23,976 кадра/сек
Цветовое пространство : YUV
Субдискретизация насыщенности : 4:2:0
Битовая глубина : 8 бит
Тип развёртки : Прогрессивная
Бит/(Пиксели*Кадры) : 0.104
Размер потока : 1,11 Гбайт (77%)
Библиотека кодирования : x264 core 129 r2245 bc13772
Настройки программы : cabac=1 / ref=12 / deblock=1:-3:-3 / analyse=0x3:0x133 / me=umh / subme=10 / psy=1 / psy_rd=1.24:0.00 / mixed_ref=1 / me_range=32 / chroma_me=1 / trellis=2 / 8x8dct=1 / cqm=0 / deadzone=21,11 / fast_pskip=0 / chroma_qp_offset=-2 / threads=8 / lookahead_threads=1 / sliced_threads=0 / nr=0 / decimate=1 / interlaced=0 / bluray_compat=0 / constrained_intra=0 / bframes=10 / b_pyramid=2 / b_adapt=1 / b_bias=0 / direct=3 / weightb=1 / open_gop=0 / weightp=2 / keyint=240 / keyint_min=22 / scenecut=40 / intra_refresh=0 / rc_lookahead=40 / rc=2pass / mbtree=1 / bitrate=1416 / ratetol=1.0 / qcomp=0.60 / qpmin=10 / qpmax=69 / qpstep=4 / cplxblur=20.0 / qblur=0.5 / ip_ratio=1.40 / aq=1:1.00
Default : Да
Forced : Нет

Аудио
Идентификатор : 2
Формат : AC-3
Формат/Информация : Audio Coding 3
Расширение режима : CM (complete main)
Идентификатор кодека : A_AC3
Продолжительность : 1 ч. 55 м.
Вид битрейта : Постоянный
Битрейт : 384 Кбит/сек
Каналы : 6 каналов
Расположение каналов : Front: L C R, Side: L R, LFE
Частота : 48,0 КГц
Битовая глубина : 16 бит
Метод сжатия : С потерями
Размер потока : 317 Мбайт (21%)
Заголовок : Дублированный
Язык : Russian
Default : Да
Forced : Нет

загрузка...
Правила, инструкции, FAQ!!!
Торрент  Добавлен [15 янв 2013, 22:26] Скачать торрент
Скачать торрент
[ Размер 14.91 КБ / Просмотров 9 ]

Статус
Проверен 
 
Размер  1.45 ГБ
Приватный: Нет (DHT включён)
.torrent скачан  0
Как залить торрент? | Как скачать Torrent? | Как смотреть и слушать онлайн?  


     Отправить личное сообщение
   
Страница 1 из 1
Показать сообщения за:  Поле сортировки  
Начать новую тему Ответить на тему

   Похожие торренты   Автор   Ответы   Просмотры   Последнее сообщение 
В этой теме нет новых непрочитанных сообщений. Скачать торрент Звонок 2 / The Ring Two (2005) HDRip | D

в форуме Ужасы, Размер: 1.45 ГБ, Здоровье: 0%

Anonymous

0
0|0

37
0

20 дек 2013, 21:31

Anonymous Перейти к последнему сообщению

В этой теме нет новых непрочитанных сообщений. Скачать торрент Проверен (Progressive Metal) Ring of Fire - Ring of Fire - Burning Live In Tokyo 2002 (2CD) (Japan, MICP-90008) - 2002, APE (image+.cue), lossless

в форуме Heavy, Power, Progressive (Metal), Размер: 691.98 МБ, Здоровье: 0%

Anonymous

0
0|0

1
0

11 окт 2016, 17:57

Anonymous Перейти к последнему сообщению

В этой теме нет новых непрочитанных сообщений. Скачать торрент Проверен (Psychedelic Rock) My Indole Ring - My Indole Ring (1966-69) - 2002(Shadoks Music), FLAC (image+.cue), lossless

в форуме Progressive & Art-Rock, Размер: 273.75 МБ, Здоровье: 0%

Anonymous

0
0|0

7
0

30 авг 2016, 22:01

Anonymous Перейти к последнему сообщению

В этой теме нет новых непрочитанных сообщений. Скачать торрент Проверен Кодзи Судзуки - Цикл "Звонок" (Звонок, Спираль, Петля, Рождение) [Андрей Левин, 2008, 32 kbps]

в форуме Зарубежная фантастика, фэнтези, мистика, ужасы, Размер: 492.93 МБ, Здоровье: 0%

Anonymous

0
0|0

1
0

11 сен 2016, 11:13

Anonymous Перейти к последнему сообщению

В этой теме нет новых непрочитанных сообщений. Скачать торрент Проверен Звонок / Ringu (1998) BDRip-AVC | P, A

в форуме Ужасы, Размер: 2.9 ГБ, Здоровье: 100%

Гость

0
14|2

132
10

17 окт 2015, 18:32

Гость Перейти к последнему сообщению



Сейчас этот форум просматривают: нет зарегистрированных пользователей и гости: 1


Вы не можете начинать темы
Вы не можете отвечать на сообщения
Вы не можете редактировать свои сообщения
Вы не можете удалять свои сообщения
Вы не можете добавлять вложения

Перейти:  

!ВНИМАНИЕ!
 Ресурс не предоставляет электронные версии произведений, а занимается лишь коллекционированием и каталогизацией ссылок, присылаемых и публикуемых на форуме нашими читателями. Если вы являетесь правообладателем какого-либо представленного материала и не желаете чтобы ссылка на него находилась в нашем каталоге, свяжитесь с нами и мы незамедлительно удалим её. Файлы для обмена на трекере предоставлены пользователями сайта, и администрация не несёт ответственности за их содержание. Просьба не заливать файлы, защищенные авторскими правами, а также файлы нелегального содержания!