На всех торрентах на трекере установлена скидка на скачивание в размере 100 процентов(а).
 Возможность скачивания торрента НЕ зависит от ограничений при низком ратио, низком аплоаде, требуемом ратио или требуемом аплоаде.


Начать новую тему Ответить на тему
Статистика раздачи
Размер: 18.53 ГБ | Добавлен: 04 май 2014, 09:18 | Скачали: 0
Сидеров: 0  [0 байт/сек]    Личеров: 0  [0 байт/сек]
Пред. тема | След. тема 

Автор
Сообщение

СообщениеДобавлено: 04 май 2014, 09:18 

Вкратце:
Теодор Туомбли — молодой писатель, который очень сильно переживает развод. Он и его супруга были хорошей семьей: преодолевали вместе множество препятствий, переживали трудные времена и радовались каждому счастливому моменту. Но в один миг всего этого не стало, и Теодор потерял смысл в своей жизни. Друзья всеми силами пытаются вытащить его из депрессии, знакомя с молоденькими симпатичными девушками, но Теодор оказывается не готов к новым отношениям. В один прекрасный момент он покупает новейшую операционную систему, искусственный интеллект которой максимально приближен к человеческому, и с этого момента его жизнь меняется самым кардинальным образом. Ежедневное общение с Самантой возрождает в нем желание жить, строить планы на будущее, испытывать радость...


Название: Она
Оригинальное название: Her
Год выхода: 2013
Жанр: мелодрама, драма, фантастика
Режиссер: Спайк Джонс

В ролях: Хоакин Феникс, Эми Адамс, Руни Мара, Оливия Уайлд, Скарлетт Йоханссон, Линн А. Фридман, Лиза Рени Питтс, Гейб Гомез, Крис Прэтт, Артт Батлер, Мэй Линдстрём, Билл Хейдер, Кристен Уиг, Брайан Джонсон, Мэтт Летчер, Спайк Джонс





Выпущено: США
Продолжительность: 02:05:50
Озвучивание: Любительское (многоголосое) [Студия Гараж]
Авторское (одноголосое) [А.Матвеев]


Формат: MKV
Качество: BDRip 1080p [DON]
Видео: 16100 kb/s, 1920x1036
Аудио:
Russian [Студия Гараж] / [А.Матвеев] / English: DTS, 1510 kb/s (6 ch)
Субтитры: Russian (full) - [Arona] + (forced), English
Дополнительно: Сохранены оригинальные чаптеры как на Blu-ray

Скачать: Сэмпл

Релиз группы:




Общее
Her.2013.Blu.Ray.1080p.CINEMANIA.mkv
Формат : Matroska
Версия формата : Version 4 / Version 2
Размер файла : 18,5 Гбайт
Продолжительность : 2 ч. 5 м.
Общий поток : 21,1 Мбит/сек
Название фильма : Release Group CINEMANIA
Дата кодирования : UTC 2014-05-01 22:23:49
Программа кодирования : mkvmerge v6.9.1 ('Blue Panther') 64bit built on Apr 18 2014 18:23:38
Библиотека кодирования : libebml v1.3.0 + libmatroska v1.4.1

Видео
Идентификатор : 1
Формат : AVC
Формат/Информация : Advanced Video Codec
Профиль формата : High@L4.1
Параметр CABAC формата : Да
Параметр ReFrames формата : 4 кадра
Идентификатор кодека : V_MPEG4/ISO/AVC
Продолжительность : 2 ч. 5 м.
Битрейт : 16,1 Мбит/сек
Ширина : 1920 пикселей
Высота : 1036 пикселей
Соотношение сторон : 1,85:1
Режим частоты кадров : Постоянный
Частота кадров : 23,976 кадра/сек
Цветовое пространство : YUV
Субдискретизация насыщенности : 4:2:0
Битовая глубина : 8 бит
Тип развёртки : Прогрессивная
Бит/(Пиксели*Кадры) : 0.338
Размер потока : 14,2 Гбайт (77%)
Заголовок : Release Group CINEMANIA
Библиотека кодирования : x264 core 142 r2409+42 04be48a tMod [8-bit@all X86_64]
Настройки программы : cabac=1 / ref=4 / deblock=1:-3:-3 / analyse=0x3:0x133 / me=umh / subme=11 / psy=1 / fade_compensate=0.00 / psy_rd=1.10:0.00 / mixed_ref=1 / me_range=30 / chroma_me=1 / trellis=2 / 8x8dct=1 / cqm=0 / deadzone=21,11 / fast_pskip=0 / chroma_qp_offset=-2 / threads=6 / lookahead_threads=1 / sliced_threads=0 / nr=0 / decimate=0 / interlaced=0 / bluray_compat=0 / constrained_intra=0 / fgo=0 / bframes=6 / b_pyramid=2 / b_adapt=2 / b_bias=0 / direct=3 / weightb=1 / open_gop=0 / weightp=2 / keyint=250 / keyint_min=23 / scenecut=40 / intra_refresh=0 / rc_lookahead=60 / rc=crf / mbtree=0 / crf=17.0000 / qcomp=0.70 / qpmin=0:0:0 / qpmax=69:69:69 / qpstep=4 / vbv_maxrate=50000 / vbv_bufsize=62500 / crf_max=0.0 / nal_hrd=none / filler=0 / ip_ratio=1.30 / pb_ratio=1.10 / aq=4:0.90 / aq-sensitivity=10.00 / aq-factor=1.00:1.00:1.00 / aq2=0 / aq3=0 / zones=169035,181029,pbratio=1.3,crf=23
Язык : English
Default : Да
Forced : Нет
Коэффициенты матрицы : BT.709

Аудио #1
Идентификатор : 2
Формат : DTS
Формат/Информация : Digital Theater Systems
Режим : 16
Параметр Endianness формата : Big
Идентификатор кодека : A_DTS
Продолжительность : 2 ч. 5 м.
Вид битрейта : Постоянный
Битрейт : 1509 Кбит/сек
Каналы : 6 каналов
Расположение каналов : Front: L C R, Side: L R, LFE
Частота : 48,0 КГц
Битовая глубина : 24 бит
Метод сжатия : С потерями
Размер потока : 1,33 Гбайт (7%)
Заголовок : Студия Гараж
Язык : Russian
Default : Да
Forced : Да

Аудио #2
Идентификатор : 3
Формат : DTS
Формат/Информация : Digital Theater Systems
Режим : 16
Параметр Endianness формата : Big
Идентификатор кодека : A_DTS
Продолжительность : 2 ч. 5 м.
Вид битрейта : Постоянный
Битрейт : 1510 Кбит/сек
Каналы : 6 каналов
Расположение каналов : Front: L C R, Side: L R, LFE
Частота : 48,0 КГц
Битовая глубина : 24 бит
Метод сжатия : С потерями
Размер потока : 1,33 Гбайт (7%)
Заголовок : А.Матвеев
Язык : Russian
Default : Нет
Forced : Нет

Аудио #3
Идентификатор : 4
Формат : DTS
Формат/Информация : Digital Theater Systems
Режим : 16
Параметр Endianness формата : Big
Идентификатор кодека : A_DTS
Продолжительность : 2 ч. 5 м.
Вид битрейта : Постоянный
Битрейт : 1509 Кбит/сек
Каналы : 6 каналов
Расположение каналов : Front: L C R, Side: L R, LFE
Частота : 48,0 КГц
Битовая глубина : 24 бит
Метод сжатия : С потерями
Размер потока : 1,33 Гбайт (7%)
Язык : English
Default : Нет
Forced : Нет

Текст #1
Идентификатор : 5
Формат : UTF-8
Идентификатор кодека : S_TEXT/UTF8
Идентификатор кодека/Информация : UTF-8 Plain Text
Заголовок : forced
Язык : Russian
Default : Да
Forced : Да

Текст #2
Идентификатор : 6
Формат : UTF-8
Идентификатор кодека : S_TEXT/UTF8
Идентификатор кодека/Информация : UTF-8 Plain Text
Заголовок : full (Arona)
Язык : Russian
Default : Нет
Forced : Нет

Текст #3
Идентификатор : 7
Формат : UTF-8
Идентификатор кодека : S_TEXT/UTF8
Идентификатор кодека/Информация : UTF-8 Plain Text
Язык : English
Default : Нет
Forced : Нет

Текст #4
Идентификатор : 8
Формат : UTF-8
Идентификатор кодека : S_TEXT/UTF8
Идентификатор кодека/Информация : UTF-8 Plain Text
Заголовок : SDH
Язык : English
Default : Нет
Forced : Нет

Меню
00:00:00.000 : en:Chapter 1
00:10:02.560 : en:Chapter 2
00:19:10.107 : en:Chapter 3
00:32:12.681 : en:Chapter 4
00:40:40.146 : en:Chapter 5
00:52:38.197 : en:Chapter 6
01:03:11.454 : en:Chapter 7
01:12:45.027 : en:Chapter 8
01:20:36.874 : en:Chapter 9
01:30:02.105 : en:Chapter 10
01:41:40.011 : en:Chapter 11
01:50:33.293 : en:Chapter 12
01:57:32.671 : en:Chapter 13
загрузка...
Правила, инструкции, FAQ!!!
Торрент  Добавлен [04 май 2014, 09:18] Скачать торрент
Скачать торрент
[ Размер 93.23 КБ / Просмотров 6 ]

Статус  
 
Размер  18.53 ГБ
Приватный: Нет (DHT включён)
.torrent скачан  0
Как залить торрент? | Как скачать Torrent? | Как смотреть и слушать онлайн?  


     Отправить личное сообщение
   
Страница 1 из 1
Показать сообщения за:  Поле сортировки  
Начать новую тему Ответить на тему

   Похожие торренты   Автор   Ответы   Просмотры   Последнее сообщение 
В этой теме нет новых непрочитанных сообщений. Скачать торрент Проверен Feuertanz Festival 2013 [2013, Folk Rock/Metal, BDRip 1080p]

в форуме Концерты (HD-Video), Размер: 9.84 ГБ, Здоровье: 100%

Anonymous

0
2|1

0
0

23 окт 2016, 13:38

Anonymous Перейти к последнему сообщению

В этой теме нет новых непрочитанных сообщений. Скачать торрент Проверен Mylene Farmer - Timeless 2013 Le Film (2013) BDRip 1080p

в форуме Концерты (HD-Video), Размер: 11.68 ГБ, Здоровье: 100%

Anonymous

0
25|2

134
46

19 май 2014, 18:48

Anonymous Перейти к последнему сообщению

В этой теме нет новых непрочитанных сообщений. Скачать торрент Проверен Megadeth - Countdown To Extinction - Live 2013 [2013, Thrash Metal, BDRip 1080p]

в форуме Концерты (HD-Video), Размер: 9.03 ГБ, Здоровье: 100%

Anonymous

0
9|3

3
0

23 окт 2016, 18:43

Anonymous Перейти к последнему сообщению

В этой теме нет новых непрочитанных сообщений. Скачать торрент Проверен Джо / Joe (2013) BDRip 1080p

в форуме 720p | 1080p, Размер: 7.75 ГБ, Здоровье: 100%

Anonymous

0
34|0

33
988

30 июл 2014, 21:46

Anonymous Перейти к последнему сообщению

В этой теме нет новых непрочитанных сообщений. Скачать торрент Сталинград (2013) BDRip 1080p

в форуме 720p | 1080p, Размер: 7.76 ГБ, Здоровье: 100%

Anonymous

0
48|3

25
392

12 мар 2014, 20:57

Anonymous Перейти к последнему сообщению



Сейчас этот форум просматривают: нет зарегистрированных пользователей и гости: 2


Вы не можете начинать темы
Вы не можете отвечать на сообщения
Вы не можете редактировать свои сообщения
Вы не можете удалять свои сообщения
Вы не можете добавлять вложения

Перейти:  

!ВНИМАНИЕ!
 Ресурс не предоставляет электронные версии произведений, а занимается лишь коллекционированием и каталогизацией ссылок, присылаемых и публикуемых на форуме нашими читателями. Если вы являетесь правообладателем какого-либо представленного материала и не желаете чтобы ссылка на него находилась в нашем каталоге, свяжитесь с нами и мы незамедлительно удалим её. Файлы для обмена на трекере предоставлены пользователями сайта, и администрация не несёт ответственности за их содержание. Просьба не заливать файлы, защищенные авторскими правами, а также файлы нелегального содержания!