На всех торрентах на трекере установлена скидка на скачивание в размере 100 процентов(а).
 Возможность скачивания торрента НЕ зависит от ограничений при низком ратио, низком аплоаде, требуемом ратио или требуемом аплоаде.


Начать новую тему Ответить на тему
Статистика раздачи
Размер: 8.21 ГБ | Добавлен: 02 май 2014, 07:36 | Скачали: 11
Сидеров: 6  [0 байт/сек]    Личеров: 1  [0 байт/сек]
Пред. тема | След. тема 

Автор
Сообщение

СообщениеДобавлено: 02 май 2014, 07:36 

Вкратце:
Канадского борца Луи Сира часто называют самым сильным человеком всех времён. Уже в детстве он поражал окружающих своими способностями. Его достижения на спортивной арене поражают воображение, а некоторые рекорды не побиты до сих пор. Так, например, Луи мог поднять и удержать на спине вес почти в две тонны! Но несмотря на свою силу, Луи оставался крайне уязвимым человеком, который свои самые трудные победы одержал вне спортивной арены.


Название: Луи Сир
Оригинальное название: Louis Cyr
Год выхода: 2013
Жанр: драма, биография, история
Режиссер: Дэниэл Роби

В ролях: Антуан Бертран, Жильбер Сикотт, Росе-Майте Эркорека, Гийом Кир, Джил Беллоуз, Элен Ганьон, Норманд Карьер, Амели Гренье





Выпущено: Канада
Продолжительность: 02:10:32
Озвучивание: Любительское (одноголосое) [R.A.I.M]


Формат: MKV
Качество: BDRip 720p [DON]
Видео: 6230 kb/s, 1280x534
Аудио: Russian: AC3, 448 kb/s (6 ch) / French: DTS, 1510 kb/s / AC3, 640 kb/s (6 ch)
Субтитры: Russian [Д. Клингонгский, К. Полков], English
Дополнительно: Сохранены оригинальные чаптеры как на Blu-Ray

Скачать: Сэмпл

Релиз группы:



Общее
Louis.Cyr.2013.Blu.Ray.720p.CINEMANIA.mkv
Формат : Matroska
Версия формата : Version 4 / Version 2
Размер файла : 8,21 Гбайт
Продолжительность : 2 ч. 10 м.
Общий поток : 9006 Кбит/сек
Название фильма : Release Group CINEMANIA
Дата кодирования : UTC 2014-05-01 20:43:36
Программа кодирования : mkvmerge v6.9.1 ('Blue Panther') 64bit built on Apr 18 2014 18:23:38
Библиотека кодирования : libebml v1.3.0 + libmatroska v1.4.1

Видео
Идентификатор : 1
Формат : AVC
Формат/Информация : Advanced Video Codec
Профиль формата : High@L4.1
Параметр CABAC формата : Да
Параметр ReFrames формата : 12 кадров
Идентификатор кодека : V_MPEG4/ISO/AVC
Продолжительность : 2 ч. 10 м.
Битрейт : 6230 Кбит/сек
Ширина : 1280 пикселей
Высота : 534 пикселя
Соотношение сторон : 2,40:1
Режим частоты кадров : Постоянный
Частота кадров : 23,976 кадра/сек
Цветовое пространство : YUV
Субдискретизация насыщенности : 4:2:0
Битовая глубина : 8 бит
Тип развёртки : Прогрессивная
Бит/(Пиксели*Кадры) : 0.380
Размер потока : 5,68 Гбайт (69%)
Заголовок : Release Group CINEMANIA
Библиотека кодирования : x264 core 140 r2377kMod 1ca7bb9
Настройки программы : cabac=1 / ref=12 / deblock=1:-3:-3 / analyse=0x3:0x133 / me=tesa / subme=10 / psy=1 / fade_compensate=0.00 / psy_rd=0.90:0.00 / mixed_ref=1 / me_range=32 / chroma_me=1 / trellis=2 / 8x8dct=1 / cqm=0 / deadzone=21,11 / fast_pskip=0 / chroma_qp_offset=-2 / threads=12 / lookahead_threads=3 / sliced_threads=0 / nr=0 / decimate=1 / interlaced=0 / bluray_compat=0 / constrained_intra=0 / fgo=0 / bframes=10 / b_pyramid=2 / b_adapt=2 / b_bias=0 / direct=3 / weightb=1 / open_gop=0 / weightp=2 / keyint=241 / keyint_min=23 / scenecut=40 / intra_refresh=0 / rc_lookahead=60 / rc=crf / mbtree=0 / crf=16.1000 / qcomp=0.65 / qpmin=0 / qpmax=69 / qpstep=4 / vbv_maxrate=50000 / vbv_bufsize=62500 / crf_max=0.0 / nal_hrd=none / filler=0 / ip_ratio=1.40 / pb_ratio=1.30 / aq=3:0.90
Язык : English
Default : Да
Forced : Нет

Аудио #1
Идентификатор : 2
Формат : AC-3
Формат/Информация : Audio Coding 3
Расширение режима : CM (complete main)
Параметр Endianness формата : Big
Идентификатор кодека : A_AC3
Продолжительность : 2 ч. 10 м.
Вид битрейта : Постоянный
Битрейт : 448 Кбит/сек
Каналы : 6 каналов
Расположение каналов : Front: L C R, Side: L R, LFE
Частота : 48,0 КГц
Битовая глубина : 16 бит
Метод сжатия : С потерями
Размер потока : 418 Мбайт (5%)
Заголовок : R.A.I.M
Язык : Russian
Default : Да
Forced : Да

Аудио #2
Идентификатор : 3
Формат : DTS
Формат/Информация : Digital Theater Systems
Режим : 16
Параметр Endianness формата : Big
Идентификатор кодека : A_DTS
Продолжительность : 2 ч. 10 м.
Вид битрейта : Постоянный
Битрейт : 1509 Кбит/сек
Каналы : 6 каналов
Расположение каналов : Front: L C R, Side: L R, LFE
Частота : 48,0 КГц
Битовая глубина : 24 бит
Метод сжатия : С потерями
Размер потока : 1,38 Гбайт (17%)
Язык : French
Default : Нет
Forced : Нет

Аудио #3
Идентификатор : 4
Формат : AC-3
Формат/Информация : Audio Coding 3
Расширение режима : CM (complete main)
Параметр Endianness формата : Big
Идентификатор кодека : A_AC3
Продолжительность : 2 ч. 10 м.
Вид битрейта : Постоянный
Битрейт : 640 Кбит/сек
Каналы : 6 каналов
Расположение каналов : Front: L C R, Side: L R, LFE
Частота : 48,0 КГц
Битовая глубина : 16 бит
Метод сжатия : С потерями
Размер потока : 598 Мбайт (7%)
Язык : French
Default : Нет
Forced : Нет

Текст #1
Идентификатор : 5
Формат : UTF-8
Идентификатор кодека : S_TEXT/UTF8
Идентификатор кодека/Информация : UTF-8 Plain Text
Заголовок : Д. Клингонгский, К. Полков
Язык : Russian
Default : Нет
Forced : Нет

Текст #2
Идентификатор : 6
Формат : UTF-8
Идентификатор кодека : S_TEXT/UTF8
Идентификатор кодека/Информация : UTF-8 Plain Text
Язык : English
Default : Нет
Forced : Нет

Меню
00:00:00.000 : :00:00:00.000
00:08:19.499 : :00:08:19.499
00:13:01.364 : :00:13:01.364
00:18:16.595 : :00:18:16.595
00:24:02.775 : :00:24:02.775
00:33:38.725 : :00:33:38.725
00:40:17.957 : :00:40:17.957
00:48:47.508 : :00:48:47.508
00:52:32.733 : :00:52:32.733
00:59:05.000 : :00:59:05.000
01:05:04.025 : :01:05:04.025
01:13:22.356 : :01:13:22.356
01:21:07.488 : :01:21:07.488
01:25:53.273 : :01:25:53.273
01:31:30.235 : :01:31:30.235
01:38:45.128 : :01:38:45.128
01:44:31.474 : :01:44:31.474
01:48:19.743 : :01:48:19.743
01:54:44.336 : :01:54:44.336
02:03:31.821 : :02:03:31.821
загрузка...
Правила, инструкции, FAQ!!!
Торрент  Добавлен [02 май 2014, 07:36] Скачать торрент
Скачать торрент
[ Размер 41.63 КБ / Просмотров 6 ]

Статус  
 
Размер  8.21 ГБ
Приватный: Нет (DHT включён)
.torrent скачан  11
Как залить торрент? | Как скачать Torrent? | Как смотреть и слушать онлайн?  


     Отправить личное сообщение
   
Страница 1 из 1
Показать сообщения за:  Поле сортировки  
Начать новую тему Ответить на тему

   Похожие торренты   Автор   Ответы   Просмотры   Последнее сообщение 
В этой теме нет новых непрочитанных сообщений. Скачать торрент Проверен [TR24][OF] Ella Fitzgerald & Louis Armstrong - Ella and Louis (1956)/Ella and Louis Again (1957) - 2013 (Vocal Jazz)

в форуме Hi-Res stereo (Джаз и Блюз), Размер: 2.4 ГБ, Здоровье: 100%

Anonymous

0
9|3

9
0

27 авг 2016, 13:23

Anonymous Перейти к последнему сообщению

В этой теме нет новых непрочитанных сообщений. Скачать торрент Проверен [iPad] Перевозчик 2 / Transporter 2 (Луи Летерье / Louis Leterrier) [2005 г., США, Франция. Боевик, триллер. BDRip 720p]

в форуме Фильмы для iPod, iPhone, iPad, Размер: 2.7 ГБ, Здоровье: 100%

Гость

0
26|8

35
0

13 май 2015, 23:58

Гость Перейти к последнему сообщению

В этой теме нет новых непрочитанных сообщений. Скачать торрент Проверен (organ, chamber)Les Maitres de l'Orgue Francais de Louis XIII à la Monarchie de Juillet (French Organ Masters From Louis XIII to Louis-Philippe); {Radio France 8CD box} - 2014, FLAC (tracks+.cue) lossless

в форуме Классика, Размер: 2.61 ГБ, Здоровье: 0%

Anonymous

0
0|0

1
0

06 окт 2016, 23:36

Anonymous Перейти к последнему сообщению

В этой теме нет новых непрочитанных сообщений. Скачать торрент Проверен [SACD-R][OF] Ella Fitzgerald And Louis Armstrong - Ella And Louis Again (Analogue Production Remaster) - 1957/2012 (Vocal jazz)

в форуме Hi-Res stereo (Джаз и Блюз), Размер: 1.78 ГБ, Здоровье: 100%

Anonymous

0
5|3

15
1

27 авг 2016, 14:17

Anonymous Перейти к последнему сообщению

В этой теме нет новых непрочитанных сообщений. Скачать торрент Проверен [TR24][OF] Ella Fitzgerald, Louis Armstrong - Ella and Louis Again - 1957/2014 (Vocal Jazz, Easy Listening, Swing)

в форуме Hi-Res stereo (Джаз и Блюз), Размер: 1.79 ГБ, Здоровье: 100%

Anonymous

0
8|2

11
0

27 авг 2016, 13:43

Anonymous Перейти к последнему сообщению



Сейчас этот форум просматривают: нет зарегистрированных пользователей и гости: 3


Вы не можете начинать темы
Вы не можете отвечать на сообщения
Вы не можете редактировать свои сообщения
Вы не можете удалять свои сообщения
Вы не можете добавлять вложения

Перейти:  

!ВНИМАНИЕ!
 Ресурс не предоставляет электронные версии произведений, а занимается лишь коллекционированием и каталогизацией ссылок, присылаемых и публикуемых на форуме нашими читателями. Если вы являетесь правообладателем какого-либо представленного материала и не желаете чтобы ссылка на него находилась в нашем каталоге, свяжитесь с нами и мы незамедлительно удалим её. Файлы для обмена на трекере предоставлены пользователями сайта, и администрация не несёт ответственности за их содержание. Просьба не заливать файлы, защищенные авторскими правами, а также файлы нелегального содержания!